<?xml version="1.0" standalone="no"?>
<!DOCTYPE svg PUBLIC "-//W3C//DTD SVG 1.1//EN" "http://www.w3.org/Graphics/SVG/1.1/DTD/svg11.dtd" >
<svg>
<metadata>
Created by FontForge 20110222 at Sat Jun 15 15:21:38 2013
 By www-data
Copyright (c) 2011 by vernon adams. All rights reserved.
</metadata>
<defs>
<font id="Muli-Light" horiz-adv-x="1244" >
  <font-face 
    font-family="Muli"
    font-weight="300"
    font-stretch="normal"
    units-per-em="2048"
    panose-1="2 0 5 3 4 0 0 2 0 4"
    ascent="1638"
    descent="-410"
    x-height="1026"
    cap-height="1456"
    bbox="-312 -541 2336 1979"
    underline-thickness="119"
    underline-position="-119"
    unicode-range="U+000D-FB02"
  />
<missing-glyph horiz-adv-x="599" 
 />
    <glyph glyph-name=".notdef" horiz-adv-x="599" 
 />
    <glyph glyph-name=".null" horiz-adv-x="0" 
 />
    <glyph glyph-name="uni000D" unicode="&#xd;" horiz-adv-x="0" 
 />
    <glyph glyph-name="space" unicode=" " horiz-adv-x="599" 
 />
    <glyph glyph-name="exclam" unicode="!" horiz-adv-x="737" 
d="M287 152h178v-175h-188zM450 385h-132v1082h132v-1082z" />
    <glyph glyph-name="quotedbl" unicode="&#x22;" horiz-adv-x="720" 
d="M471 1026l-34 441h138v-441h-104zM173 1026l-34 441h136v-441h-102z" />
    <glyph glyph-name="numbersign" unicode="#" horiz-adv-x="1242" 
d="M401 917h-273l9 93h282l81 426h99l-82 -426h323l82 426h96l-80 -426h253l-10 -93h-259l-60 -322h264l-14 -91h-269l-85 -441h-99l86 441h-324l-87 -441h-96l86 441h-264l7 91h275zM824 917h-323l-64 -322h326z" />
    <glyph glyph-name="dollar" unicode="$" 
d="M569 -216l6 193h-13q-129 0 -239.5 48t-185.5 145l54 80q49 -55 98.5 -86.5t99 -47.5t98.5 -21q46 -4 92 -4l21 588l-39 14q-78 29 -152 62.5t-132.5 80t-94 111t-35.5 156.5q0 94 44 165t117 119t165 72q76 19 155 23l6 173h64l-6 -173q35 -1 71 -6q51 -6 101 -21
t96.5 -40.5t85.5 -63.5l-49 -93q-69 60 -158 85q-75 21 -151 24l-19 -580l32 -12q78 -31 152.5 -66t133 -83.5t94 -113.5t35.5 -156q0 -70 -22.5 -125.5t-62.5 -97.5t-93 -71.5t-115 -48.5t-129 -27q-26 -4 -53 -6l-6 -196h-66zM527 1354q-67 -14 -120.5 -45t-87 -79
t-33.5 -115q0 -71 35.5 -121t94 -88.5t132.5 -69.5l56 -23l20 554q-49 -3 -97 -13zM742 108q72 17 123.5 50t80.5 82t29 114q0 74 -35.5 125.5t-94 89.5t-132.5 67q-24 9 -49 19l-19 -562q51 4 97 15z" />
    <glyph glyph-name="percent" unicode="%" horiz-adv-x="1985" 
d="M1487 644q-62 0 -107.5 -25t-75.5 -66.5t-44.5 -95.5t-14.5 -112q0 -60 14 -113.5t44 -93t76 -63t110 -23.5q62 0 107.5 25t75.5 67t44.5 96t14.5 112q0 60 -14.5 113t-44.5 93t-76 63t-109 23zM1494 726q81 0 143.5 -28.5t105 -78.5t64.5 -118.5t22 -147.5t-24.5 -148.5
t-69.5 -121t-109 -81t-143 -29.5q-81 0 -143.5 28.5t-106 78t-66 117.5t-22.5 147q0 80 24.5 149.5t70 121.5t110 81.5t144.5 29.5zM529 1463q82 0 145 -28.5t106 -78.5t65.5 -118.5t22.5 -147.5t-24.5 -148t-70 -120.5t-109.5 -81t-142 -29.5q-82 0 -145 29t-106 79
t-65 118t-22 146q0 81 24 150.5t69 120.5t109 80t143 29zM1394 1452h105l-916 -1457h-105zM526 1385q-63 0 -109 -25t-76 -67t-45 -96t-15 -112q0 -60 15 -113.5t45.5 -94t77 -64t110.5 -23.5q62 0 107 25t74.5 66.5t43.5 95t14 111.5q0 60 -14 113.5t-43.5 94.5t-75.5 65
t-109 24z" />
    <glyph glyph-name="ampersand" unicode="&#x26;" horiz-adv-x="1647" 
d="M132 395q0 86 35 155t91.5 125.5t128 101.5t144.5 84q-38 38 -75.5 75t-67.5 77.5t-48.5 87.5t-18.5 106q0 70 27.5 122.5t75.5 88t112 53.5t137 18q67 0 132 -16.5t116 -50.5t82.5 -86t31.5 -123q0 -63 -27 -117t-72.5 -100.5t-105 -85.5t-123.5 -72l463 -466
q41 57 74.5 125.5t57 143.5t36 153t12.5 152q0 26 -1 40.5t-2 23t-2 12.5t-2 10h130q3 -38 3 -76q0 -87 -14 -176.5t-42 -176t-68.5 -167.5t-92.5 -150q48 -51 88.5 -88.5t80.5 -64.5t84 -44.5t99 -27.5l-97 -70q-43 6 -78.5 21.5t-71.5 42t-76 63t-92 84.5
q-47 -48 -102 -90t-120 -72.5t-141 -48.5t-166 -18q-115 0 -213 28.5t-169.5 82.5t-112 132.5t-40.5 178.5zM1109 282q1 0 -20 21.5t-56.5 56.5t-81 80.5l-92.5 92.5l-251 251q-64 -31 -125.5 -68t-109.5 -83t-77 -103t-29 -127q0 -68 29.5 -127t82.5 -102t127 -67.5
t164 -24.5q75 0 138 15.5t116 42.5t98.5 63.5t86.5 78.5zM629 909q51 27 101 57.5t89.5 66.5t64 78t24.5 91t-20.5 85t-53 58.5t-73.5 33.5t-82 11q-46 0 -88 -12t-73.5 -35.5t-50 -58t-18.5 -80.5q0 -44 13.5 -82.5t37.5 -74t57 -69.5t72 -69z" />
    <glyph glyph-name="quotesingle" unicode="'" horiz-adv-x="554" 
d="M238 1026l-34 441h137v-441h-103z" />
    <glyph glyph-name="parenleft" unicode="(" horiz-adv-x="628" 
d="M455 -268q-57 87 -107 187.5t-88 210t-60 225t-22 234.5q0 121 19.5 236t56 224.5t88.5 213.5t116 204h95q-123 -199 -189.5 -416.5t-66.5 -452.5q0 -109 17.5 -223.5t50.5 -226.5t81 -218t108 -198h-99z" />
    <glyph glyph-name="parenright" unicode=")" horiz-adv-x="628" 
d="M189 -268h-96q56 90 103 191t81 210.5t53 227.5t19 243q0 106 -17.5 217.5t-50.5 222.5t-81.5 218t-110.5 205h101q58 -92 109 -194t89 -211t60.5 -224.5t22.5 -233.5q0 -123 -20.5 -238.5t-58 -224t-89 -210.5t-114.5 -199z" />
    <glyph glyph-name="asterisk" unicode="*" horiz-adv-x="1065" 
d="M546 1065l-172 -283l-87 54l207 250l-296 84l18 101l301 -132l-25 328h84v-330l250 137l49 -91l-276 -94l209 -263l-90 -52z" />
    <glyph glyph-name="plus" unicode="+" horiz-adv-x="1458" 
d="M685 608v439h106v-439h465v-104h-468v-439h-107v439h-463v104h467z" />
    <glyph glyph-name="comma" unicode="," horiz-adv-x="540" 
d="M213 176h140l-155 -441h-91z" />
    <glyph glyph-name="hyphen" unicode="-" horiz-adv-x="728" 
d="M100 508v102h545v-102h-545z" />
    <glyph glyph-name="period" unicode="." horiz-adv-x="540" 
d="M361 -11h-173v179h173v-179z" />
    <glyph glyph-name="slash" unicode="/" horiz-adv-x="717" 
d="M-22 -224l648 1691h121l-653 -1691h-116z" />
    <glyph glyph-name="zero" unicode="0" horiz-adv-x="1190" 
d="M612 1469q137 0 231 -57t152.5 -159t84 -242.5t25.5 -307.5q0 -164 -33 -297.5t-97.5 -229t-160 -147.5t-220.5 -52q-130 0 -222.5 55.5t-151 154.5t-86 235.5t-27.5 298.5q0 173 32 311.5t96 235.5t158 149t219 52zM602 1359q-91 0 -158.5 -46t-112.5 -128.5
t-67.5 -197.5t-22.5 -254q0 -76 6.5 -154t22 -150t42 -134.5t67 -109t96.5 -73.5t131 -27q91 0 159 45.5t112 127.5t66 195.5t22 249.5q0 75 -6 153t-21 151t-41 137t-66.5 112t-97 75.5t-131.5 27.5z" />
    <glyph glyph-name="one" unicode="1" horiz-adv-x="1190" 
d="M301 1285q73 24 143 60.5t137 81.5l130 20v-1335h228v-112h-580v117h230l-1 1193q-72 -45 -145.5 -81.5t-143.5 -62.5z" />
    <glyph glyph-name="two" unicode="2" horiz-adv-x="1190" 
d="M118 0l1 131q84 80 174.5 162t178 164t166 164t137.5 161.5t94 156.5t35 149q0 59 -22.5 108t-64.5 84t-101.5 54.5t-132.5 19.5q-63 0 -119.5 -15t-103 -42.5t-82.5 -67.5t-58 -89l-76 73q23 60 66.5 106.5t103 78.5t132.5 49t154 17q93 0 173 -25.5t139 -73.5
t92.5 -117t33.5 -155q0 -82 -28 -160.5t-79.5 -156.5t-123 -156.5t-157.5 -160t-185 -167t-204 -178.5h777v-114h-920z" />
    <glyph glyph-name="three" unicode="3" horiz-adv-x="1190" 
d="M160 1324q33 31 77 57t95.5 44.5t109.5 29t120 10.5q87 0 168.5 -24t144.5 -70.5t101 -115t38 -158.5q0 -69 -23.5 -128.5t-68.5 -104t-111.5 -72t-151.5 -34.5v-4q86 -8 158.5 -36.5t125 -75t81.5 -110.5t29 -144q0 -95 -40.5 -171.5t-110 -129.5t-161.5 -81.5
t-195 -28.5q-118 0 -218.5 33.5t-171.5 102.5l57 89q63 -57 146.5 -87t180.5 -30q79 0 148 20.5t120.5 59.5t81 95.5t29.5 128.5q0 84 -31.5 142.5t-90 95t-142.5 53.5t-188 17q-14 0 -27.5 -1t-24.5 -1l1 113q4 -1 12 -1h25q93 0 170.5 14.5t133 47.5t86 87t30.5 132
q0 69 -23.5 119t-66 82.5t-101.5 48t-129 15.5q-106 0 -192 -33t-148 -88z" />
    <glyph glyph-name="four" unicode="4" horiz-adv-x="1189" 
d="M769 0v363h-728v106l680 967h176v-972h222v-101h-226v-363h-124zM765 464v884l-108 -168l-506 -716h614z" />
    <glyph glyph-name="five" unicode="5" horiz-adv-x="1190" 
d="M254 214q63 -66 139 -97.5t164 -31.5q91 0 162.5 29t120 78.5t74 116.5t25.5 142q0 68 -22 129t-64.5 106.5t-105 72.5t-143.5 27q-88 0 -157.5 -27.5t-107.5 -75.5q-14 0 -37 -0.5t-45 -0.5h-54v759h793v-114h-651l-15 -516q26 23 59 40t69.5 28.5t75.5 17t78 5.5
q107 0 192.5 -34t145 -94.5t91 -143.5t31.5 -182q0 -101 -35.5 -187t-102 -149t-162 -99t-215.5 -36q-99 0 -189.5 32t-161.5 101z" />
    <glyph glyph-name="six" unicode="6" horiz-adv-x="1190" 
d="M966 1273q-52 42 -120.5 64t-155.5 22q-78 0 -141.5 -26t-114 -72t-87.5 -108.5t-61.5 -136t-36.5 -154.5t-12 -163q0 -29 0.5 -42.5t1.5 -19t1.5 -6t0.5 -2.5q25 71 66.5 124t95.5 88t120 52.5t140 17.5q101 0 183 -32t139.5 -91.5t88.5 -143.5t31 -189
q0 -102 -34.5 -189.5t-97.5 -151.5t-152.5 -100.5t-199.5 -36.5q-128 0 -223.5 51.5t-159 145t-95 223t-31.5 285.5q0 161 37.5 304t110.5 250.5t181.5 170t249.5 62.5q100 0 179.5 -30t138.5 -87zM631 806q-71 0 -137 -22.5t-117 -62.5t-82 -94.5t-31 -118.5
q0 -72 17.5 -147.5t60 -136.5t113 -100t175.5 -39q78 0 140.5 27.5t106.5 76t67.5 114.5t23.5 143q0 76 -20 142t-61 114.5t-104.5 76t-151.5 27.5z" />
    <glyph glyph-name="seven" unicode="7" horiz-adv-x="1189" 
d="M1071 1436v-73l-601 -1363h-143l603 1322h-817v114h958z" />
    <glyph glyph-name="eight" unicode="8" horiz-adv-x="1190" 
d="M113 361q0 73 24.5 136t71 113.5t114 87t153.5 57.5v3q-77 16 -137.5 48t-102.5 77t-64 102.5t-22 123.5q0 84 38 151t102.5 113.5t149 71t176.5 24.5q88 0 168 -23.5t141 -68.5t97.5 -110.5t36.5 -149.5q0 -64 -23 -120.5t-66 -102t-103 -80t-134 -55.5v-3
q185 -48 274.5 -143t89.5 -244q0 -94 -40.5 -167t-110 -123t-162.5 -76t-198 -26q-95 0 -180.5 25t-150.5 74t-103.5 120.5t-38.5 164.5zM245 378q0 -72 27.5 -127t76 -91.5t114 -55.5t141.5 -19t140.5 20t112 57.5t74.5 91t27 120.5q0 74 -25.5 129t-72.5 94t-113.5 63.5
t-148.5 37.5q-78 -14 -143 -40.5t-111.5 -66.5t-72.5 -93t-26 -120zM277 1109q0 -126 83.5 -197.5t243.5 -97.5q161 22 244 93t83 191q0 68 -26.5 118t-71 83t-103.5 49t-124 16q-62 0 -121 -16.5t-105 -49t-74.5 -80t-28.5 -109.5z" />
    <glyph glyph-name="nine" unicode="9" horiz-adv-x="1190" 
d="M243 184q46 -51 116.5 -80t166.5 -29q112 0 196 54.5t140.5 146.5t84.5 212t28 251q0 17 -0.5 34.5t-1.5 34.5q-54 -125 -161 -190.5t-259 -65.5q-102 0 -184.5 33.5t-141 93t-90 141.5t-31.5 180q0 99 34.5 185t97.5 149t153 99t201 36q121 0 215.5 -45.5t159 -134.5
t98 -220t33.5 -301q0 -174 -38 -319.5t-111.5 -250.5t-181.5 -163t-247 -58q-106 0 -185 32.5t-129 95.5zM582 661q69 0 135.5 22.5t118.5 61.5t83.5 92.5t31.5 115.5q0 72 -20.5 144.5t-65 130.5t-114.5 94.5t-169 36.5q-77 0 -140.5 -26.5t-108.5 -74t-70 -112t-25 -139.5
q0 -74 20.5 -137t62.5 -109.5t107 -73t154 -26.5z" />
    <glyph glyph-name="colon" unicode=":" horiz-adv-x="540" 
d="M331 769h-172v179h173zM361 -11h-173v179h173v-179z" />
    <glyph glyph-name="semicolon" unicode=";" horiz-adv-x="540" 
d="M213 176h140l-155 -441h-91zM333 769h-174v176h174v-176z" />
    <glyph glyph-name="less" unicode="&#x3c;" horiz-adv-x="1458" 
d="M398 552l832 -374v-114l-993 450l5 75l992 466v-116z" />
    <glyph glyph-name="equal" unicode="=" horiz-adv-x="1458" 
d="M1254 398v-106h-1036v106h1036zM1254 821v-107h-1038v107h1038z" />
    <glyph glyph-name="greater" unicode="&#x3e;" horiz-adv-x="1458" 
d="M1083 552l-842 399v115l995 -478l-6 -71l-993 -440v110z" />
    <glyph glyph-name="question" unicode="?" horiz-adv-x="1032" 
d="M390 380l-14 177q-1 5 -1 14q0 54 29.5 99.5t73.5 88t96 84.5t96 88t73.5 98.5t29.5 116.5t-23.5 109.5t-61.5 74.5t-87 42.5t-101 13.5q-47 0 -87.5 -6.5t-76.5 -16.5t-68 -21t-60 -20v106q64 35 133 50.5t132 15.5q89 0 166.5 -20.5t135 -62.5t90.5 -106t33 -150
q0 -96 -40 -167t-102 -122q-17 -14 -28 -23.5t-25 -21.5q-63 -59 -104.5 -96t-66 -68t-34.5 -63t-10 -80q0 -29 3 -65l5 -69h-106zM550 -11h-173v179h173v-179z" />
    <glyph glyph-name="at" unicode="@" horiz-adv-x="1895" 
d="M1240 975h2l33 139l118 9l-67 -254q-23 -86 -41 -154.5t-30.5 -121.5t-19 -91.5t-6.5 -65.5q0 -52 23.5 -81.5t89.5 -29.5t126 40.5t106 107.5t73.5 154t27.5 180q0 131 -50.5 241.5t-142 190t-218.5 124t-279 44.5q-105 0 -200.5 -26t-177 -73.5t-147.5 -114t-113 -147
t-72 -173t-25 -191.5q0 -101 24 -192.5t69.5 -170t110.5 -142t147.5 -108.5t180.5 -69.5t209 -24.5q160 0 297.5 45t237.5 132l50 -46q-48 -50 -113 -90t-141.5 -68.5t-162.5 -44t-176 -15.5q-182 0 -336.5 60t-266.5 166.5t-175 252t-63 316.5q0 114 30 218.5t85 194
t132 163t171.5 125t203.5 80t228 28.5q165 0 309.5 -51.5t251 -143.5t168 -218t61.5 -276q0 -120 -40.5 -223.5t-106.5 -180.5t-150 -121t-170 -44q-87 0 -143 53.5t-65 146.5q-26 -42 -58 -73.5t-69 -52.5t-76.5 -31.5t-78.5 -10.5q-57 0 -111.5 22t-97 65.5t-68 108
t-25.5 150.5q0 69 18.5 135t51 124.5t78 108t98.5 85.5t112 56t120 20q46 0 86 -11.5t71.5 -33.5t52.5 -52.5t29 -68.5zM636 586q0 -50 14 -91.5t41 -71.5t65.5 -46.5t88.5 -16.5q73 0 136.5 41t110 107.5t73 151.5t26.5 173q0 46 -10.5 85t-33.5 67t-60 43.5t-91 15.5
q-78 0 -144 -42.5t-114 -109t-75 -147.5t-27 -159z" />
    <glyph glyph-name="A" unicode="A" horiz-adv-x="1425" 
d="M177 0h-139l609 1456h151l603 -1456h-141l-179 426h-734zM382 520h665l-246 648l-79 221l-77 -221z" />
    <glyph glyph-name="B" unicode="B" horiz-adv-x="1352" 
d="M224 0v1456h277q63 0 135.5 -1.5t143.5 -11t137 -30t116 -58.5t80 -96.5t30 -143.5q0 -69 -25.5 -127.5t-69.5 -104t-104 -76.5t-129 -44q88 -3 161.5 -29t125.5 -73t81 -113.5t29 -150.5q0 -79 -30 -151t-89 -126.5t-147.5 -87t-206.5 -32.5h-515zM354 699v-585h316
q194 0 300.5 69t106.5 215q0 86 -31 144t-90.5 93t-147 49.5t-201.5 14.5h-253zM356 812h223q79 0 156 12t138 43t98 84t37 134t-32.5 131.5t-88.5 78.5t-132 37.5t-164 9.5h-235v-530z" />
    <glyph glyph-name="C" unicode="C" horiz-adv-x="1399" 
d="M1204 1266q-132 102 -356 102q-149 0 -258 -56.5t-181 -149t-107 -210.5t-35 -241q0 -124 32.5 -236t101 -197.5t174 -136t251.5 -50.5q133 0 241.5 30.5t179.5 93.5l42 -97q-86 -69 -211 -105t-284 -36q-162 0 -286.5 57.5t-208.5 157t-127.5 232.5t-43.5 285
q0 156 48 296t139 246.5t221.5 169t295.5 62.5q132 0 232.5 -33.5t187.5 -108.5z" />
    <glyph glyph-name="D" unicode="D" horiz-adv-x="1546" 
d="M217 1456h299q137 0 258 -12.5t223 -43.5t183 -84t137.5 -134t86.5 -194t30 -263q0 -165 -55.5 -299t-161 -228.5t-257.5 -146t-344 -51.5h-405zM345 114h290q169 0 293.5 45t206 125t121 191t39.5 243q0 174 -49 293t-145 192.5t-238.5 106t-328.5 32.5h-189v-1228z" />
    <glyph glyph-name="E" unicode="E" horiz-adv-x="1218" 
d="M1096 114v-114h-870v1456h842v-114h-710v-538h670v-113h-672v-577h740z" />
    <glyph glyph-name="F" unicode="F" horiz-adv-x="1137" 
d="M350 0h-132v1456h818v-114h-686v-543h650v-113h-650v-686z" />
    <glyph glyph-name="G" unicode="G" horiz-adv-x="1530" 
d="M857 624v114h499l-4 -663q-112 -54 -237 -76t-254 -22q-178 0 -313.5 52t-227 147t-138 227.5t-46.5 294.5t49 304.5t141.5 249.5t226.5 169t305 62q81 0 155.5 -14t136 -42t106.5 -70t66 -98l-56 -70q-25 46 -66.5 79.5t-96 55.5t-119.5 33t-137 11q-142 0 -250 -55
t-180.5 -146t-109.5 -209.5t-37 -244.5q0 -139 37.5 -253.5t113.5 -196.5t190 -127t267 -45q97 0 185 15t164 51l2 467h-372z" />
    <glyph glyph-name="H" unicode="H" horiz-adv-x="1555" 
d="M351 0h-131v1456h135v-650h868v650h130v-1456h-134v693h-868v-693z" />
    <glyph glyph-name="I" unicode="I" horiz-adv-x="591" 
d="M370 0h-135v1456h135v-1456z" />
    <glyph glyph-name="J" unicode="J" horiz-adv-x="939" 
d="M168 126q58 -35 164 -35q76 0 129 27.5t87 78.5t49.5 123.5t16.5 161.5l6 974h128l-4 -963q-1 -132 -29.5 -229t-82 -161t-131 -95t-176.5 -31q-57 0 -101 14t-79 40z" />
    <glyph glyph-name="K" unicode="K" horiz-adv-x="1294" 
d="M362 769l696 687h161l-686 -698l738 -758h-183l-728 759v-759h-132v1456h134v-687z" />
    <glyph glyph-name="L" unicode="L" horiz-adv-x="1120" 
d="M1068 0h-844v1456h132v-1342h712v-114z" />
    <glyph glyph-name="M" unicode="M" horiz-adv-x="2002" 
d="M346 0h-130v1456h208l476 -1060l112 -261l111 260l485 1061h200v-1456h-132v940v450l-93 -241l-526 -1149h-95l-507 1124l-109 256v-443v-937z" />
    <glyph glyph-name="N" unicode="N" horiz-adv-x="1594" 
d="M343 1322v-1322h-131v1456h177l756 -1133l134 -221v340v1014h122v-1456h-180l-759 1132z" />
    <glyph glyph-name="O" unicode="O" horiz-adv-x="1663" 
d="M1551 730q0 -165 -48.5 -303.5t-140.5 -238.5t-224.5 -155.5t-299.5 -55.5q-164 0 -294.5 53t-221.5 151t-139.5 236.5t-48.5 309.5q0 165 48.5 303.5t140.5 239t225 157t302 56.5q162 0 292 -53.5t221 -152t139.5 -237.5t48.5 -310zM271 725q0 -133 36.5 -248.5
t108.5 -201t178 -135t245 -49.5q141 0 247.5 49t177.5 135.5t106.5 204t35.5 255.5q0 133 -35 249t-105.5 201.5t-176.5 134.5t-248 49q-140 0 -246.5 -53t-178.5 -141.5t-108.5 -205.5t-36.5 -244z" />
    <glyph glyph-name="P" unicode="P" horiz-adv-x="1274" 
d="M350 0h-126v1456h328q84 0 164.5 -7.5t152.5 -26t132 -49.5t103.5 -78.5t68 -113t24.5 -152.5q0 -113 -48.5 -193.5t-130 -132t-189.5 -76t-227 -24.5h-246zM356 717h291q90 0 166 18t130.5 56t85.5 96t31 138q0 95 -33.5 156.5t-95 97t-147 49.5t-188.5 14h-240v-625z
" />
    <glyph glyph-name="Q" unicode="Q" horiz-adv-x="1664" 
d="M270 725q0 -132 36.5 -247.5t108 -201.5t178 -135.5t246.5 -49.5q141 0 247.5 49t177.5 135.5t106.5 204t35.5 255.5q0 133 -35.5 249t-106 201t-176.5 134t-247 49q-93 0 -171.5 -24t-142 -67t-111.5 -103t-80.5 -131.5t-49 -152t-16.5 -165.5zM1605 -188
q-28 -5 -68 -7.5t-78 -2.5q-111 0 -190 6t-136 17.5t-96 28t-70 36.5t-58 43t-60 49q-159 0 -290 53t-224.5 152.5t-144.5 241t-51 318.5q0 162 49.5 297t142 232.5t224 152t296.5 54.5q162 0 291.5 -54t219.5 -152t138.5 -234.5t48.5 -301.5q0 -140 -36 -268t-107.5 -229
t-178 -168.5t-246.5 -85.5q37 -26 98.5 -40.5t130 -21t134.5 -8t113 -1.5q45 0 83.5 2.5t64.5 6.5v-116z" />
    <glyph glyph-name="R" unicode="R" horiz-adv-x="1377" 
d="M1139 0l-152 416q-27 73 -54 121.5t-64 77.5t-88 41t-126 12h-298v-668h-130v1456h342q59 0 128.5 -2t139.5 -13t135 -33.5t115.5 -64t81 -105t30.5 -155.5q0 -73 -25 -133.5t-71 -106t-110 -76t-142 -43.5q-2 -6 -2 -8q0 -1 0.5 -1.5t0.5 -1.5q72 -14 116.5 -48.5
t79.5 -94.5t68.5 -149t83.5 -212l80 -209h-139zM361 783h293q73 0 145.5 12.5t130.5 44.5t94.5 86.5t36.5 138.5t-30 137.5t-83.5 84.5t-126.5 43t-159 12h-301v-559z" />
    <glyph glyph-name="S" unicode="S" 
d="M207 250q49 -55 98.5 -86.5t99 -47.5t98.5 -20.5t97 -4.5q86 0 158 17t123.5 50t80.5 82t29 114q0 74 -35.5 125.5t-94 89.5t-132.5 67t-152 57.5t-152 62t-132.5 80t-94 111t-35.5 156.5q0 94 44 165t117 119t165.5 72t190.5 24q48 0 99 -6.5t101 -21.5t96.5 -40.5
t85.5 -63.5l-49 -93q-69 60 -157.5 85t-177.5 25q-68 0 -135 -14t-120.5 -45t-87 -79t-33.5 -115q0 -71 35.5 -121t94 -88.5t133 -69t152.5 -61.5t152.5 -66t133 -83.5t94 -113.5t35.5 -156q0 -70 -22.5 -125.5t-62.5 -97.5t-93 -71.5t-115 -48.5t-128.5 -27.5t-132.5 -8.5
q-129 0 -239.5 48t-185.5 145z" />
    <glyph glyph-name="T" unicode="T" horiz-adv-x="1174" 
d="M530 0v1342h-477v114h1088v-114h-476v-1342h-135z" />
    <glyph glyph-name="U" unicode="U" horiz-adv-x="1532" 
d="M1212 1456h126l-5 -908q-1 -134 -36.5 -240t-106.5 -179.5t-177.5 -112.5t-248.5 -39q-137 0 -237 35t-167.5 102t-104.5 163t-46 219q-1 5 -1 8.5v8.5v19l6 924h125l-3 -913q0 -106 25.5 -189.5t79 -142t136.5 -89.5t197 -31q106 0 187 25t135 78t81.5 137t28.5 202z
" />
    <glyph glyph-name="V" unicode="V" horiz-adv-x="1336" 
d="M679 100l72 201l433 1155h136l-570 -1456h-155l-559 1456h142l429 -1156z" />
    <glyph glyph-name="W" unicode="W" horiz-adv-x="2103" 
d="M1584 67l58 249l319 1140h127l-425 -1456h-174l-418 1325l-426 -1325h-182l-424 1456h142l311 -1119l72 -279l69 260l364 1138h150l357 -1123z" />
    <glyph glyph-name="X" unicode="X" horiz-adv-x="1304" 
d="M582 741l-499 715h166l419 -636l98 133l349 503h146l-513 -714l521 -742h-163l-443 664l-464 -664h-154z" />
    <glyph glyph-name="Y" unicode="Y" horiz-adv-x="1266" 
d="M707 588v-588h-133v582l-531 874h144l456 -765l463 765h138z" />
    <glyph glyph-name="Z" unicode="Z" horiz-adv-x="1222" 
d="M1143 0h-1067v70l907 1272h-870v114h1044v-66l-912 -1276h898v-114z" />
    <glyph glyph-name="bracketleft" unicode="[" horiz-adv-x="628" 
d="M537 -268h-317v1735h316v-88h-200v-1560h201v-87z" />
    <glyph glyph-name="backslash" unicode="\" horiz-adv-x="706" 
d="M654 -122l-696 1589h118l695 -1589h-117z" />
    <glyph glyph-name="bracketright" unicode="]" horiz-adv-x="628" 
d="M128 1467h300v-1735h-317v87h198v1560h-199z" />
    <glyph glyph-name="asciicircum" unicode="^" horiz-adv-x="1457" 
d="M217 569l479 879h70l488 -879h-108l-408 749h-7l-408 -749h-106z" />
    <glyph glyph-name="underscore" unicode="_" horiz-adv-x="998" 
d="M1004 -282h-991v93h991v-93z" />
    <glyph glyph-name="grave" unicode="`" horiz-adv-x="593" 
d="M48 1508h158l229 -292h-82z" />
    <glyph glyph-name="a" unicode="a" 
d="M596 1051q72 0 129.5 -15.5t105 -44t87 -69.5t75.5 -93l5 197h120v-244v-782h-126l2 219q-14 -41 -49 -83.5t-87 -78t-119.5 -58t-145.5 -22.5q-127 0 -218.5 49.5t-150.5 128t-87 176t-28 193.5q0 99 30 194t91 169t152 119t214 45zM997 525q-6 81 -27.5 157.5
t-66.5 136.5t-117.5 96t-180.5 36q-101 0 -172.5 -39t-117.5 -101.5t-67 -139.5t-21 -153t16 -154.5t58.5 -142.5t118 -105t194.5 -41q80 0 150 26t121.5 79t81.5 133t30 187v25z" />
    <glyph glyph-name="b" unicode="b" horiz-adv-x="1239" 
d="M293 0h-117v1508h124v-692q30 59 73 103t95.5 73.5t112.5 44t124 14.5q116 0 198.5 -42.5t135.5 -114.5t78 -167.5t25 -200.5q0 -113 -29 -212.5t-86.5 -174.5t-144.5 -118.5t-202 -43.5q-250 0 -381 216zM664 951q-103 0 -173 -38t-113 -102t-61.5 -147.5t-18.5 -173.5
q0 -89 23.5 -165t69 -131.5t113 -87t155.5 -31.5q99 0 167.5 40.5t110.5 105.5t61 146.5t19 163.5q0 87 -21 163.5t-64.5 133.5t-110 90t-157.5 33z" />
    <glyph glyph-name="c" unicode="c" horiz-adv-x="1046" 
d="M903 848q-42 51 -113 77t-159 26q-92 0 -164 -35t-122.5 -95t-77 -140.5t-26.5 -171.5t22.5 -170.5t70 -138t121 -92t175.5 -33.5q186 0 302 100l30 -97q-66 -54 -154 -77.5t-194 -23.5q-125 0 -219 41t-157 112t-94.5 166.5t-31.5 203.5q0 113 34 213t98.5 175t159 119
t216.5 44q117 0 201.5 -33.5t134.5 -93.5z" />
    <glyph glyph-name="d" unicode="d" horiz-adv-x="1240" 
d="M957 1508h124v-1261q0 -66 0.5 -123.5t3.5 -123.5h-123l-6 206q-68 -120 -166 -174.5t-225 -54.5q-117 0 -202.5 41.5t-141 112.5t-82.5 167t-27 206q0 109 29 208t87.5 174.5t145.5 120t203 44.5q133 0 230.5 -56t149.5 -174v687zM594 75q92 0 160.5 34.5t113.5 95.5
t67 145t22 183q0 96 -25 173t-71 131.5t-111.5 84t-147.5 29.5q-95 0 -163 -36t-112 -97t-65 -141.5t-21 -169.5q0 -85 18.5 -163t60.5 -138t109 -95.5t165 -35.5z" />
    <glyph glyph-name="e" unicode="e" horiz-adv-x="1173" 
d="M268 593h687v2v-7q-3 81 -22.5 147.5t-58.5 114.5t-99.5 74.5t-145.5 26.5q-83 0 -147 -28.5t-109 -77.5t-71.5 -114t-33.5 -138zM1001 202l36 -96q-75 -69 -174.5 -99t-224.5 -30q-119 0 -212.5 39.5t-158 110t-98.5 168t-34 213.5q0 111 34 210t98 173t156.5 117
t209.5 43q116 0 201.5 -39t141 -108.5t82.5 -166.5t27 -214q0 -8 -0.5 -17.5t-0.5 -14.5h-818v-19q0 -89 26.5 -162t76.5 -125t121 -81t161 -29q112 0 201 33t149 94z" />
    <glyph glyph-name="f" unicode="f" horiz-adv-x="702" 
d="M399 0h-124v944h-207v82h207v164q-2 81 14.5 144.5t51.5 108t89.5 67.5t130.5 23q22 0 38 -1.5t29 -3.5t24.5 -5.5t26.5 -7.5l-1 -96q-12 4 -33.5 7t-57.5 3q-60 0 -98 -15.5t-59 -46.5t-26.5 -76t-4.5 -104v-161h255v-82h-255v-944z" />
    <glyph glyph-name="g" unicode="g" horiz-adv-x="1241" 
d="M962 1026h124v-244v-647q0 -75 -9 -142t-28.5 -131t-55.5 -118.5t-94 -95t-142 -63.5t-200 -23q-97 0 -186.5 18.5t-164.5 57.5l12 116q73 -42 157.5 -62.5t172.5 -20.5q195 0 299.5 87.5t109.5 274.5l5 218q-57 -127 -160 -189t-233 -62q-108 0 -193 37t-144 103.5
t-90 160.5t-31 208q0 111 29.5 209.5t89 172.5t148 117t207.5 43q64 0 119 -16.5t101.5 -46t85 -71t68.5 -91.5zM959 551q0 82 -24.5 155t-70.5 127.5t-112 86t-148 31.5q-90 0 -158 -35.5t-113.5 -95.5t-68.5 -139t-23 -165q0 -95 18.5 -171t61 -129.5t111.5 -82.5t170 -29
q67 0 119.5 17.5t92 48t67 72.5t45 91.5t25.5 105t8 112.5z" />
    <glyph glyph-name="h" unicode="h" horiz-adv-x="1217" 
d="M313 1508v-683q66 118 158.5 172t223.5 54q100 0 167 -31.5t108 -83.5t60.5 -118t24.5 -135l2 -44v-639h-124v530q0 37 -1 81.5t-1 45.5q-7 142 -76.5 218t-207.5 76q-83 0 -145.5 -28t-104.5 -77t-63.5 -115.5t-20.5 -142.5v-588h-124v1508h124z" />
    <glyph glyph-name="i" unicode="i" horiz-adv-x="503" 
d="M315 1478v-124h-115v124h115zM193 1026h124v-1026h-124v1026z" />
    <glyph glyph-name="j" unicode="j" horiz-adv-x="503" 
d="M-82 -323q18 -2 33.5 -4.5t31.5 -2.5q61 0 102.5 20t67 62t37 106.5t12.5 153.5v1014h124v-921q0 -143 -10 -227t-42.5 -159.5t-93 -119.5t-161.5 -44q-49 0 -99 10zM317 1478v-124h-116v124h116z" />
    <glyph glyph-name="k" unicode="k" horiz-adv-x="1082" 
d="M1050 0h-166l-567 535v-535h-124v1508h124v-939l526 457h163l-547 -481z" />
    <glyph glyph-name="l" unicode="l" horiz-adv-x="503" 
d="M316 1508v-1508h-124v1508h124z" />
    <glyph glyph-name="m" unicode="m" horiz-adv-x="1901" 
d="M303 1026l5 -197q23 57 61 99t86.5 69t104.5 40.5t115 13.5q64 0 120 -18t100 -50.5t73.5 -78t41.5 -99.5q22 63 59.5 109.5t87.5 76.5t111.5 45t132.5 15q81 0 139 -21t97.5 -55t63 -78t35.5 -90t15.5 -90t3.5 -78v-639h-124v561q0 94 -12 167t-43.5 122.5t-86 75
t-140.5 25.5q-78 0 -137.5 -29t-99.5 -78t-62 -115t-22 -139v-590h-124v638q0 154 -73 233.5t-211 79.5q-78 0 -137 -27.5t-98 -76.5t-60.5 -115t-21.5 -142v-590h-124v770q0 17 -0.5 81t-4.5 175h129z" />
    <glyph glyph-name="n" unicode="n" horiz-adv-x="1217" 
d="M311 0h-124v788l-9 238h130l6 -201q121 226 380 226q75 0 131.5 -18t97 -49.5t66.5 -73.5t40 -90.5t20 -101t6 -104.5q1 -27 1 -100.5v-180.5v-333h-124v542q0 54 -0.5 85t-1.5 40q-5 141 -75.5 212.5t-193.5 71.5q-56 0 -103.5 -14.5t-86 -38.5t-67.5 -54.5t-51 -63
t-32 -63.5t-10 -56v-661z" />
    <glyph glyph-name="o" unicode="o" horiz-adv-x="1238" 
d="M633 1051q128 0 224 -41.5t160.5 -114t97 -170.5t32.5 -210q0 -110 -34.5 -207.5t-100.5 -171t-163.5 -116.5t-223.5 -43q-125 0 -221 41t-161.5 113t-99 169t-33.5 209t34.5 211t101 172.5t164 116t223.5 42.5zM1017 511q0 89 -23.5 169t-71.5 140t-121.5 95.5
t-174.5 35.5q-96 0 -168 -36.5t-121 -98t-73.5 -141t-24.5 -165.5t24.5 -165t74 -139t123 -95.5t171.5 -35.5q96 0 168.5 36t120.5 96t72 139t24 165z" />
    <glyph glyph-name="p" unicode="p" horiz-adv-x="1239" 
d="M299 -443h-124v1210q0 28 -1 92.5t-6 166.5h129l3 -208q61 123 166 178t239 55q112 0 194.5 -41.5t137 -112.5t81.5 -166t27 -202q0 -109 -29 -209t-86.5 -176t-145 -121.5t-204.5 -45.5q-251 0 -381 217v-637zM298 494q0 -90 24 -166.5t70 -133t113.5 -88t153.5 -31.5
q94 0 161 36.5t110 98t63.5 142t20.5 169.5q0 83 -18 160.5t-59.5 137.5t-108.5 96t-164 36q-103 0 -173 -38t-113 -101t-61.5 -145.5t-18.5 -172.5z" />
    <glyph glyph-name="q" unicode="q" horiz-adv-x="1240" 
d="M956 210q-65 -120 -169 -176.5t-234 -56.5q-111 0 -193.5 40.5t-137.5 112t-82.5 168t-27.5 207.5q0 109 29.5 208t88 174t146 119.5t203.5 44.5q134 0 231.5 -54.5t145.5 -157.5l4 187h123q-2 -84 -2.5 -134t-0.5 -67v-1267h-124v652zM959 544q0 89 -23.5 163.5
t-69 128.5t-112 84.5t-151.5 30.5q-93 0 -161 -35.5t-112.5 -96t-66.5 -141.5t-22 -172q0 -86 19.5 -164.5t62 -137.5t109 -94t161.5 -35q106 0 176.5 40.5t112.5 107t59.5 150.5t17.5 171z" />
    <glyph glyph-name="r" unicode="r" horiz-adv-x="737" 
d="M313 0h-124v788l-10 238h130l4 -248q16 72 46.5 123.5t69.5 84.5t88 48.5t106 16.5q29 0 50.5 -1.5t35.5 -5.5l1 -114q-9 4 -32.5 7.5t-61.5 3.5q-66 0 -121 -25.5t-94.5 -73.5t-63 -116t-24.5 -152v-574z" />
    <glyph glyph-name="s" unicode="s" horiz-adv-x="1007" 
d="M800 894q-44 27 -120.5 42t-167.5 15q-53 0 -98 -11.5t-77.5 -33t-50.5 -52t-18 -69.5q0 -50 14.5 -79t42.5 -47.5t69 -30t94 -25t117 -34t138 -56.5q27 -13 56 -31.5t53 -46.5t39 -66.5t15 -90.5q0 -77 -35.5 -133.5t-93.5 -94t-132.5 -55.5t-152.5 -18
q-53 0 -104.5 5.5t-97.5 18t-84.5 32.5t-64.5 49l31 94q23 -26 58 -45t76.5 -31.5t88 -18.5t93.5 -6q63 0 116 12t91.5 35t59.5 58t21 81q0 53 -24 88t-67 59t-101 41.5t-127 36.5q-73 22 -131.5 46t-100 57t-64 78.5t-22.5 111.5q0 69 31.5 120t83.5 85t117.5 50.5
t134.5 16.5q100 0 184.5 -18t138.5 -60z" />
    <glyph glyph-name="t" unicode="t" horiz-adv-x="729" 
d="M271 944h-207v82h207l1 288l123 34v-322h264v-82h-264v-641q0 -59 3 -103t16 -72.5t45.5 -42.5t92.5 -14q72 0 110 19v-85q-22 -15 -51.5 -21.5t-67.5 -6.5q-83 0 -136.5 18t-83.5 54.5t-41 91.5t-11 129v674z" />
    <glyph glyph-name="u" unicode="u" horiz-adv-x="1217" 
d="M925 1026h124v-789q0 -16 1 -75t4 -162h-129v203q-56 -118 -150 -172t-229 -54q-111 0 -182.5 38t-113 98t-57.5 134.5t-16 148.5v630h124v-621q3 -81 16 -142.5t47.5 -103t89.5 -63t135 -21.5q81 0 143.5 26.5t105 73t65 109.5t22.5 137v12v593z" />
    <glyph glyph-name="v" unicode="v" horiz-adv-x="1063" 
d="M912 1026h130l-434 -1026h-137l-428 1026h132l285 -702l83 -213l75 187z" />
    <glyph glyph-name="w" unicode="w" horiz-adv-x="1695" 
d="M807 1026h135l252 -752l56 -193l54 190l245 755h129l-369 -1026h-129l-258 779l-50 165l-52 -168l-280 -776h-131l-364 1026h129l253 -754l56 -177l54 165z" />
    <glyph glyph-name="x" unicode="x" horiz-adv-x="1043" 
d="M844 0l-316 449l-334 -449h-137l397 514l-380 512h157l307 -443l316 443h129l-378 -508l394 -518h-155z" />
    <glyph glyph-name="y" unicode="y" horiz-adv-x="1069" 
d="M46 1026h131l363 -936l376 936h128l-463 -1110q-28 -67 -65 -126.5t-83.5 -106t-102.5 -78.5t-122 -44l-67 81q81 21 134 54t87 72t54 81t36 80l25 61z" />
    <glyph glyph-name="z" unicode="z" horiz-adv-x="958" 
d="M78 67l643 855h-615v104h776v-65l-640 -858h657l-20 -103h-801v67z" />
    <glyph glyph-name="braceleft" unicode="{" horiz-adv-x="627" 
d="M273 1172q0 70 16 124.5t50.5 92.5t89 58t132.5 20l-3 -92q-47 -2 -78.5 -8t-51 -25.5t-28 -57t-8.5 -102.5v-302q0 -73 -19 -124.5t-46 -85t-57 -51t-52 -21.5q47 -16 79.5 -45t53 -66t30 -80t9.5 -86l1 -343q0 -2 -0.5 -4t-0.5 -4q0 -78 41 -112.5t129 -34.5l-1 -91
q-60 0 -113 13.5t-92 44.5t-62 80.5t-23 121.5l4 273q0 51 -4.5 99t-21.5 87t-50 65t-90 34l1 97q92 8 130 62t37 161z" />
    <glyph glyph-name="bar" unicode="|" horiz-adv-x="500" 
d="M195 -510v2074h119v-2074h-119z" />
    <glyph glyph-name="braceright" unicode="}" horiz-adv-x="627" 
d="M86 1375l1 92q66 -5 119.5 -22t91 -49t58 -79.5t20.5 -112.5l-3 -298q0 -49 6 -93t23.5 -79t50 -57.5t86.5 -27.5l-2 -97q-48 -4 -80 -22.5t-51.5 -51t-27.5 -77.5t-8 -102l-1 -305q0 -57 -16 -103t-43 -79t-63.5 -52.5t-78.5 -23.5q-24 -2 -44 -3.5t-37 -0.5l1 91
q49 0 82 8t52.5 36.5t27.5 82t8 145.5q0 56 -2.5 113.5t-2.5 111.5q0 72 19 123.5t46 85t55.5 50.5t48.5 19q-54 19 -86 51t-49.5 70.5t-23 80t-5.5 79.5l-1 313q0 41 -8 74t-28 56.5t-53 37t-82 15.5z" />
    <glyph glyph-name="asciitilde" unicode="~" horiz-adv-x="1458" 
d="M500 693q37 0 80 -12.5t88 -31t89.5 -40t86 -40t77 -31t61.5 -12.5q38 0 71 15t58.5 40t43.5 57t26 66l80 -26q-13 -56 -38 -102t-61 -79.5t-82.5 -52t-101.5 -18.5q-30 0 -67.5 12.5t-79 31t-85.5 40t-87 40t-84 31t-76 12.5q-44 0 -80 -15.5t-63 -41t-45 -58.5t-26 -68
l-73 33q11 49 35 94.5t60 80t84.5 55t108.5 20.5z" />
    <glyph glyph-name="nonbreakingspace" unicode="&#xa0;" horiz-adv-x="561" 
 />
    <glyph glyph-name="exclamdown" unicode="&#xa1;" horiz-adv-x="737" 
d="M458 1059h-178v175h188zM295 826h132v-1082h-132v1082z" />
    <glyph glyph-name="cent" unicode="&#xa2;" horiz-adv-x="1189" 
d="M697 1128l45 241h81l-49 -241q45 -7 83.5 -23t70 -39t53.5 -53t34 -64l-47 -59q-25 54 -75.5 85t-128.5 45l-139 -848q40 -9 83 -9q42 0 83.5 9t78 28t65.5 46.5t46 65.5l59 -55q-16 -50 -47.5 -87t-74.5 -61t-94.5 -36t-107.5 -12q-50 0 -101 9l-48 -235h-83l54 245
q-86 17 -153 62.5t-112.5 111.5t-69.5 149.5t-24 176.5q0 111 35 210.5t101.5 174.5t162.5 119t219 44zM552 191l136 833q-84 -5 -154.5 -37t-120.5 -87.5t-78 -133t-28 -173.5q0 -74 17 -139t48.5 -117.5t77 -90t102.5 -55.5z" />
    <glyph glyph-name="sterling" unicode="&#xa3;" horiz-adv-x="1189" 
d="M1009 1275q-24 16 -54.5 30.5t-64 25t-69 17t-69.5 6.5q-87 0 -145 -24t-93 -71.5t-49.5 -116.5t-14.5 -159v-20l-2 -137h343v-111h-344l-5 -206q-2 -93 -5 -156t-13.5 -107.5t-31 -75.5t-57.5 -60h749v-110h-950l1 110q36 9 68 23.5t56 44t38.5 77.5t16.5 125l9 335
h-190v111h189q-1 16 -1 31.5v31.5q0 73 6 144t23.5 135t47.5 118.5t78 94t116 61.5t160 22q46 0 91.5 -8.5t86.5 -24t75.5 -36.5t59.5 -45z" />
    <glyph glyph-name="currency" unicode="&#xa4;" horiz-adv-x="1238" 
d="M566 1051q65 0 125 -17l102 267l42 -16l-103 -267q104 -47 155 -140.5t51 -214.5q0 -51 -10.5 -98.5t-30.5 -90t-49.5 -78t-67.5 -60.5l151 -280l-35 -16l-149 276q-41 -20 -87 -31t-100 -11q-62 0 -110 13l-96 -247l-37 16l93 245q-54 21 -95.5 56.5t-69.5 82t-42.5 102
t-14.5 117.5q0 56 12 108.5t35 97.5t57.5 81t79.5 60l-151 279l40 16l150 -278q66 28 155 28zM844 660q0 64 -17 122t-51.5 102t-88 69.5t-126.5 25.5q-69 0 -121.5 -26.5t-87.5 -70.5t-53 -101.5t-18 -120.5t18 -120t53.5 -100.5t88.5 -69t124 -25.5q70 0 122 26t87 69.5
t52.5 100.5t17.5 119z" />
    <glyph glyph-name="yen" unicode="&#xa5;" horiz-adv-x="1189" 
d="M527 704l-473 732h151l275 -456l126 -215l116 193l295 478h136l-472 -732h390v-108h-407v-195h411v-109h-414v-292h-131v292h-405l20 109h390v195h-413v108h405z" />
    <glyph glyph-name="brokenbar" unicode="&#xa6;" horiz-adv-x="500" 
d="M198 763v801h116v-801h-116zM311 394v-904h-116v904h116z" />
    <glyph glyph-name="section" unicode="&#xa7;" horiz-adv-x="1097" 
d="M831 1366q-17 9 -41.5 16.5t-53 12.5t-58.5 8t-57 3q-53 0 -98.5 -9t-78.5 -28.5t-52 -49t-19 -71.5q0 -35 12 -62t40 -52t75 -51t118 -58q58 -25 111 -52t93 -60t64 -74t24 -94q0 -47 -17.5 -86.5t-46.5 -72t-67.5 -59t-80.5 -47.5q40 -19 74.5 -41.5t59.5 -50.5
t39 -63.5t14 -80.5q0 -70 -32 -125t-87 -92.5t-127 -57.5t-151 -20q-133 0 -254 49l-2 111q62 -29 126.5 -41.5t127.5 -12.5q64 0 114.5 13.5t85 37.5t52.5 56.5t18 69.5q0 39 -17.5 67.5t-51.5 52.5t-83 45.5t-113 46.5l-29 11l9 -4q-60 26 -109 54.5t-83.5 63t-53 76
t-18.5 92.5q0 48 17.5 87t46.5 70t68 55t82 42q-41 23 -73.5 48t-55.5 54.5t-35 66t-12 81.5q0 67 29.5 117.5t80 84t118.5 50t146 16.5q31 0 58 -2t52.5 -6.5t50.5 -11t51 -15.5v-108zM605 525q29 18 59.5 39t55.5 46t41 55t16 66q0 39 -17 66.5t-46 49t-68 39t-84 36.5
q-24 10 -33 14t-12 6t-4 3t-8 4q-32 -16 -61.5 -35t-52.5 -43t-37 -53.5t-14 -65.5q0 -44 19 -75.5t54 -57t84 -47.5t108 -47z" />
    <glyph glyph-name="dieresis" unicode="&#xa8;" horiz-adv-x="743" 
d="M324 1293h-119v128h120zM700 1293h-123v128h123v-128z" />
    <glyph glyph-name="copyright" unicode="&#xa9;" horiz-adv-x="1829" 
d="M932 51q103 0 196.5 24t174 68.5t146 106.5t112 137.5t71.5 163t25 181.5q0 96 -25.5 184t-72.5 164t-113 138t-147.5 106t-176 68t-197.5 24q-152 0 -284.5 -53t-230.5 -145t-154.5 -216.5t-56.5 -267.5q0 -144 56 -269t154.5 -217t232.5 -144.5t290 -52.5zM930 -32
q-112 0 -216 27.5t-194.5 77t-165 119.5t-128 155t-82.5 182.5t-29 202.5t29.5 203t83 183t128 155.5t164.5 120.5t193.5 77.5t213.5 27.5q112 0 215.5 -27.5t193.5 -77.5t164.5 -120t127.5 -155t82 -183t29 -203t-29 -202.5t-82.5 -182.5t-127.5 -155t-164 -120
t-192.5 -77.5t-213.5 -27.5zM1227 1068q-43 51 -114 77t-159 26q-92 0 -164 -35t-122.5 -95t-77 -140.5t-26.5 -171.5t22.5 -170.5t70 -138t121 -92t175.5 -33.5q186 0 302 100l30 -97q-66 -54 -154 -77.5t-194 -23.5q-125 0 -219 41t-157 112t-94.5 166.5t-31.5 203.5
q0 113 34 213t98.5 175t159 119t216.5 44q117 0 201.5 -33.5t134.5 -93.5z" />
    <glyph glyph-name="ordfeminine" unicode="&#xaa;" horiz-adv-x="745" 
d="M159 1429q49 34 110.5 49t133.5 15q54 0 101.5 -14.5t82 -42t54.5 -68.5t20 -94q0 -8 1 -11l-2 -330q0 -32 2.5 -60.5t4.5 -58.5h-88l-2 127q-13 -29 -37.5 -55.5t-58 -46.5t-74.5 -31.5t-86 -11.5q-50 0 -92.5 14t-74 40.5t-49.5 63.5t-18 83q0 183 231 201
q69 7 131.5 12.5t126.5 9.5q0 60 -9.5 98.5t-31 61t-56.5 31t-85 8.5q-58 0 -111 -10t-96 -39zM345 865q64 0 108 26t71 63.5t39 79t12 73.5l-2 50q-39 -9 -83.5 -13t-88.5 -9t-84 -12.5t-70.5 -22.5t-49 -40t-18.5 -65q0 -66 46 -98t120 -32z" />
    <glyph glyph-name="guillemotleft" unicode="&#xab;" horiz-adv-x="1156" 
d="M744 911h110l-259 -370l252 -364h-107l-265 364zM445 911h106l-257 -370l252 -364h-107l-265 364z" />
    <glyph glyph-name="logicalnot" unicode="&#xac;" horiz-adv-x="1458" 
d="M1149 247v437h-930v105h1038v-542h-108z" />
    <glyph glyph-name="registered" unicode="&#xae;" horiz-adv-x="1829" 
d="M731 689v-407h-100v916h258q214 0 315.5 -64.5t101.5 -181.5q0 -48 -17.5 -92.5t-54 -79t-92.5 -56t-132 -24.5q24 -14 50.5 -42t54 -64t55 -78t53 -84t49 -81t41.5 -69h-118l-123 212q-42 73 -83 121t-86 74h-172zM732 774h153q72 0 130 5t98.5 22t62.5 48.5t22 84.5
q0 57 -17.5 91.5t-56 54t-100.5 26t-150 6.5h-146zM932 51q103 0 196.5 24t174 68.5t146 106.5t112 137.5t71.5 163t25 181.5q0 96 -25.5 184t-72.5 164t-113 138t-147.5 106t-176 68t-197.5 24q-152 0 -284.5 -53t-230.5 -145t-154.5 -216.5t-56.5 -267.5q0 -144 56 -269
t154.5 -217t232.5 -144.5t290 -52.5zM930 -32q-112 0 -216 27.5t-194.5 77t-165 119.5t-128 155t-82.5 182.5t-29 202.5t29.5 203t83 183t128 155.5t164.5 120.5t193.5 77.5t213.5 27.5q112 0 215.5 -27.5t193.5 -77.5t164.5 -120t127.5 -155t82 -183t29 -203t-29 -202.5
t-82.5 -182.5t-127.5 -155t-164 -120t-192.5 -77.5t-213.5 -27.5z" />
    <glyph glyph-name="uni00AF" unicode="&#xaf;" horiz-adv-x="850" 
d="M737 1430h-837l-8 99h837z" />
    <glyph glyph-name="degree" unicode="&#xb0;" horiz-adv-x="844" 
d="M209 1169q0 -46 16 -84.5t45 -66.5t68.5 -44t87.5 -16q46 0 86.5 16.5t70.5 46t47 69t17 84.5q0 46 -17 85t-46.5 67.5t-70 45t-87.5 16.5q-45 0 -84.5 -17.5t-69 -47.5t-46.5 -69.5t-17 -84.5zM730 1176q0 -60 -24.5 -113t-66 -92t-97 -62t-117.5 -23q-61 0 -115.5 21.5
t-95.5 59.5t-65 89t-24 111t24 113t65 93t96 63.5t117 23.5q63 0 118 -22.5t96 -61.5t65 -90.5t24 -109.5z" />
    <glyph glyph-name="plusminus" unicode="&#xb1;" horiz-adv-x="1458" 
d="M221 0v107h1036v-107h-1036zM685 724v386h103v-386h467v-107h-468v-385h-104v385h-466l20 107h448z" />
    <glyph glyph-name="twosuperior" unicode="&#xb2;" horiz-adv-x="1190" 
d="M303 628v87q46 43 96.5 88t98.5 90t91.5 90.5t76 89t52 85.5t19.5 81q0 61 -44.5 98.5t-121.5 37.5q-69 0 -119 -33.5t-78 -90.5l-59 55q30 72 100 111t164 39q53 0 99.5 -15t80.5 -43t53.5 -68t19.5 -89q0 -64 -29 -124.5t-79.5 -121t-119 -122.5t-146.5 -129l-40 -34
h413v-82h-528z" />
    <glyph glyph-name="threesuperior" unicode="&#xb3;" horiz-adv-x="1190" 
d="M261 1370q40 39 103 63t132 24q51 0 98 -14t84 -41.5t59 -68t22 -92.5q0 -69 -38.5 -119.5t-112.5 -70.5q78 -22 125 -73t47 -132q0 -55 -23 -99t-63 -74.5t-92.5 -47t-112.5 -16.5q-69 0 -128.5 21t-101.5 63l42 66q38 -35 84.5 -52.5t98.5 -17.5q42 0 78.5 11
t64.5 31.5t44 50t16 67.5q0 44 -17 74.5t-49 49.5t-77 27.5t-100 8.5q-14 0 -21.5 -0.5t-12.5 -0.5h-5l2 83h28q50 0 91.5 7.5t71 24.5t46 45.5t16.5 69.5q0 36 -12.5 61.5t-34.5 42t-52.5 24.5t-67.5 8q-58 0 -106 -19.5t-86 -51.5z" />
    <glyph glyph-name="acute" unicode="&#xb4;" horiz-adv-x="607" 
d="M543 1508h159l-285 -292h-80z" />
    <glyph glyph-name="mu1" unicode="&#xb5;" horiz-adv-x="1182" 
d="M879 208q-42 -118 -115 -174.5t-187 -56.5q-187 0 -251 157l-14 -541h-133v1433h135l-1 -630q0 -1 -0.5 -4t-0.5 -4q0 -67 20.5 -120.5t56.5 -90.5t86 -57t110 -20q66 0 120.5 23.5t93 67.5t60 106t21.5 139v590h136v-767q0 -88 5.5 -153t24.5 -106h-138
q-11 26 -20.5 73.5t-9.5 114.5q0 5 0.5 11.5t0.5 8.5z" />
    <glyph glyph-name="paragraph" unicode="&#xb6;" horiz-adv-x="1214" 
d="M470 -154v968h-10q-68 0 -129 24t-107 68t-72.5 106t-26.5 138q0 92 41 153t111.5 97.5t164 51.5t197.5 15h373v-90h-89v-1531h-99v1531h-240v-1531h-114z" />
    <glyph glyph-name="glyph120" unicode="&#xb7;" horiz-adv-x="444" 
d="M184 523q-20 0 -39 8.5t-33.5 23.5t-23 34.5t-8.5 41.5q0 42 25.5 70t62.5 28q22 0 41.5 -9t34.5 -24t24 -35.5t9 -43.5q0 -39 -26.5 -66.5t-66.5 -27.5z" />
    <glyph glyph-name="cedilla" unicode="&#xb8;" horiz-adv-x="529" 
d="M84 -342q34 -11 68 -16t67 -5q76 0 108 25.5t32 66.5q0 28 -10.5 46.5t-30 30t-47 16t-61.5 4.5h3.5t2.5 -1q-4 0 -7 -1l-30 -3l30 159h47l-18 -110q7 0 13 0.5t13 0.5q41 0 76.5 -7.5t62 -24t41.5 -42.5t15 -63t-17 -64.5t-47.5 -45.5t-72.5 -27t-91 -9q-42 0 -79 5
t-73 14z" />
    <glyph glyph-name="onesuperior" unicode="&#xb9;" horiz-adv-x="1190" 
d="M261 1349q45 14 84.5 35t76.5 44l83 12v-732h126v-80h-339v83h127l-1 626q-38 -23 -79 -42.5t-79 -34.5z" />
    <glyph glyph-name="ordmasculine" unicode="&#xba;" horiz-adv-x="824" 
d="M425 1492q85 0 150 -26.5t108.5 -73t65.5 -110.5t22 -138q0 -72 -23 -135.5t-67 -111t-108.5 -75t-148.5 -27.5q-86 0 -151.5 27t-109.5 74t-66 111.5t-22 138.5q0 73 23 136t68 109.5t110 73.5t149 27zM168 1146q0 -57 16.5 -107.5t48.5 -88t80.5 -59.5t113.5 -22
q61 0 108 22t79.5 59.5t49 86.5t16.5 104q0 57 -17 107.5t-50 88.5t-81.5 60t-111.5 22q-61 0 -108 -22t-79 -59t-48.5 -87t-16.5 -105z" />
    <glyph glyph-name="guillemotright" unicode="&#xbb;" horiz-adv-x="1156" 
d="M722 177h-107l259 365l-254 369h109l267 -369zM312 177h-108l260 365l-255 369h109l266 -369z" />
    <glyph glyph-name="onequarter" unicode="&#xbc;" horiz-adv-x="1986" 
d="M261 1349q45 14 84.5 35t76.5 44l83 12v-732h126v-80h-339v83h127l-1 626q-38 -23 -79 -42.5t-79 -34.5zM1475 1452l-915 -1452h-98l917 1452h96zM1470 61v196h-392v68l370 525h108v-522h117l6 -71h-125v-41v-114v-41h-84zM1468 328l-1 437q-11 -17 -20.5 -33t-20.5 -33
l-264 -371h306z" />
    <glyph glyph-name="onehalf" unicode="&#xbd;" horiz-adv-x="1858" 
d="M261 1349q45 14 84.5 35t76.5 44l83 12v-732h126v-80h-339v83h127l-1 626q-38 -23 -79 -42.5t-79 -34.5zM1417 1452l-915 -1452h-98l917 1452h96zM1084 -1v87q46 43 96.5 88t98.5 90t91.5 90.5t76 89t52 85.5t19.5 81q0 61 -44.5 98.5t-121.5 37.5q-69 0 -119 -33.5
t-78 -90.5l-59 55q30 72 100 111t164 39q53 0 99.5 -15t80.5 -43t53.5 -68t19.5 -89q0 -64 -29 -124.5t-79.5 -121t-119 -122.5t-146.5 -129l-40 -34h413v-82h-528z" />
    <glyph glyph-name="threequarters" unicode="&#xbe;" horiz-adv-x="1921" 
d="M206 1370q40 39 103 63t132 24q51 0 98 -14t84 -41.5t59 -68t22 -92.5q0 -69 -38.5 -119.5t-112.5 -70.5q78 -22 125 -73t47 -132q0 -55 -23 -99t-63 -74.5t-92.5 -47t-112.5 -16.5q-69 0 -128.5 21t-101.5 63l42 66q38 -35 84.5 -52.5t98.5 -17.5q42 0 78.5 11
t64.5 31.5t44 50t16 67.5q0 44 -17 74.5t-49 49.5t-77 27.5t-100 8.5q-14 0 -21.5 -0.5t-12.5 -0.5h-5l2 83h28q50 0 91.5 7.5t71 24.5t46 45.5t16.5 69.5q0 36 -12.5 61.5t-34.5 42t-52.5 24.5t-67.5 8q-58 0 -106 -19.5t-86 -51.5zM1461 1452l-915 -1452h-98l917 1452h96z
M1439 65v196h-392v68l370 525h108v-522h117l6 -71h-125v-41v-114v-41h-84zM1437 332l-1 437q-11 -17 -20.5 -33t-20.5 -33l-264 -371h306z" />
    <glyph glyph-name="questiondown" unicode="&#xbf;" horiz-adv-x="1032" 
d="M717.023 941.023l14 -176.989q0.999023 -5 0.999023 -13.999q0 -53.9971 -29.498 -99.4941t-73.4951 -87.9951q-43.9971 -42.4971 -95.9941 -84.4941q-51.9971 -41.998 -95.9941 -87.9951t-73.4961 -98.4941q-29.498 -52.4961 -29.498 -116.492t23.499 -109.494
q23.498 -45.4971 61.4961 -74.4951t86.9951 -42.4971q48.9961 -13.499 100.993 -13.499q46.9971 0 87.4951 6.49902q40.4971 6.5 76.4951 16.499t67.9961 20.999q31.998 10.999 59.9961 19.999v-105.994q-63.9961 -34.9971 -132.992 -50.4971
q-68.9951 -15.499 -131.991 -15.499q-88.9951 0 -166.49 20.499t-134.992 62.4961q-57.4961 41.998 -90.4941 105.994t-32.998 149.99q0 95.9941 39.998 166.99q39.9971 70.9951 101.993 121.992q16.999 13.999 27.999 23.499q10.999 9.49902 24.998 21.498
q62.9961 58.9971 104.493 95.9941q41.498 36.998 65.9961 67.9961q24.499 30.998 34.498 62.9961t9.99902 79.9951q0 28.998 -2.99902 64.9961l-5 68.9961h105.993zM557.033 1332h172.99v-178.989h-172.99v178.989z" />
    <glyph glyph-name="Agrave" unicode="&#xc0;" horiz-adv-x="1425" 
d="M177 0h-139l609 1456h151l603 -1456h-141l-179 426h-734zM382 520h665l-246 648l-79 221l-77 -221zM387 1938h158l229 -292h-82z" />
    <glyph glyph-name="Aacute" unicode="&#xc1;" horiz-adv-x="1425" 
d="M177 0h-139l609 1456h151l603 -1456h-141l-179 426h-734zM382 520h665l-246 648l-79 221l-77 -221zM722 1938h159l-285 -292h-80z" />
    <glyph glyph-name="Acircumflex" unicode="&#xc2;" horiz-adv-x="1425" 
d="M177 0h-139l609 1456h151l603 -1456h-141l-179 426h-734zM382 520h665l-246 648l-79 221l-77 -221zM455 1644l209 296h135l208 -296h-79l-199 240l-200 -240h-74z" />
    <glyph glyph-name="Atilde" unicode="&#xc3;" horiz-adv-x="1425" 
d="M177 0h-139l609 1456h151l603 -1456h-141l-179 426h-734zM382 520h665l-246 648l-79 221l-77 -221zM924 1881h62q-4 -39 -17.5 -73.5t-36 -59.5t-53.5 -39.5t-69 -14.5q-24 0 -54 11t-64 24.5t-71 24.5t-73 11q-51 0 -81 -21.5t-35 -66.5h-58q8 82 55 132t125 50
q30 0 60 -11.5t61.5 -25t65.5 -24.5t71 -11q46 0 76.5 23t35.5 71z" />
    <glyph glyph-name="Adieresis" unicode="&#xc4;" horiz-adv-x="1425" 
d="M177 0h-139l609 1456h151l603 -1456h-141l-179 426h-734zM382 520h665l-246 648l-79 221l-77 -221zM602 1723h-119v128h120zM978 1723h-123v128h123v-128z" />
    <glyph glyph-name="Aring" unicode="&#xc5;" horiz-adv-x="1425" 
d="M177 0h-139l609 1456h151l603 -1456h-141l-179 426h-734zM382 520h665l-246 648l-79 221l-77 -221zM873 1801q0 27 -12 51.5t-33 44t-49.5 31t-61.5 11.5q-29 0 -55.5 -11.5t-47 -30.5t-33 -44t-12.5 -52q0 -62 41.5 -101.5t111.5 -39.5q30 0 57 11.5t48 31t33.5 45
t12.5 53.5zM529 1800q0 38 15.5 71t42 57t62 37.5t75.5 13.5t74.5 -13.5t60.5 -37.5t41 -56.5t15 -70.5q0 -37 -15.5 -70t-42 -58t-62 -39.5t-75.5 -14.5q-39 0 -74 13.5t-61 37.5t-41 57.5t-15 72.5z" />
    <glyph glyph-name="AE" unicode="&#xc6;" horiz-adv-x="2028" 
d="M943 1342l-475 -821h628l-63 821h-90zM866 1456h1023v-114h-737l41 -538h655v-113h-639l45 -577h659v-114h-769l-32 407h-702l-231 -407h-146z" />
    <glyph glyph-name="Ccedilla" unicode="&#xc7;" horiz-adv-x="1399" 
d="M1204 1266q-132 102 -356 102q-149 0 -258 -56.5t-181 -149t-107 -210.5t-35 -241q0 -124 32.5 -236t101 -197.5t174 -136t251.5 -50.5q133 0 241.5 30.5t179.5 93.5l42 -97q-86 -69 -211 -105t-284 -36q-162 0 -286.5 57.5t-208.5 157t-127.5 232.5t-43.5 285
q0 156 48 296t139 246.5t221.5 169t295.5 62.5q132 0 232.5 -33.5t187.5 -108.5zM631 -342q34 -11 68 -16t67 -5q76 0 108 25.5t32 66.5q0 28 -10.5 46.5t-30 30t-47 16t-61.5 4.5h3.5t2.5 -1q-4 0 -7 -1l-30 -3l30 159h47l-18 -110q7 0 13 0.5t13 0.5q41 0 76.5 -7.5
t62 -24t41.5 -42.5t15 -63t-17 -64.5t-47.5 -45.5t-72.5 -27t-91 -9q-42 0 -79 5t-73 14z" />
    <glyph glyph-name="Egrave" unicode="&#xc8;" horiz-adv-x="1218" 
d="M1096 114v-114h-870v1456h842v-114h-710v-538h670v-113h-672v-577h740zM283 1938h158l229 -292h-82z" />
    <glyph glyph-name="Eacute" unicode="&#xc9;" horiz-adv-x="1218" 
d="M618 1938h159l-285 -292h-80zM1096 114v-114h-870v1456h842v-114h-710v-538h670v-113h-672v-577h740z" />
    <glyph glyph-name="Ecircumflex" unicode="&#xca;" horiz-adv-x="1218" 
d="M356 1644l209 296h135l208 -296h-79l-199 240l-200 -240h-74zM1096 114v-114h-870v1456h842v-114h-710v-538h670v-113h-672v-577h740z" />
    <glyph glyph-name="Edieresis" unicode="&#xcb;" horiz-adv-x="1218" 
d="M502 1723h-119v128h120zM878 1723h-123v128h123v-128zM1096 114v-114h-870v1456h842v-114h-710v-538h670v-113h-672v-577h740z" />
    <glyph glyph-name="Igrave" unicode="&#xcc;" horiz-adv-x="591" 
d="M370 0h-135v1456h135v-1456zM-29 1938h158l229 -292h-82z" />
    <glyph glyph-name="Iacute" unicode="&#xcd;" horiz-adv-x="591" 
d="M370 0h-135v1456h135v-1456zM306 1938h159l-285 -292h-80z" />
    <glyph glyph-name="Icircumflex" unicode="&#xce;" horiz-adv-x="591" 
d="M370 0h-135v1456h135v-1456zM37 1644l209 296h135l208 -296h-79l-199 240l-200 -240h-74z" />
    <glyph glyph-name="Idieresis" unicode="&#xcf;" horiz-adv-x="591" 
d="M370 0h-135v1456h135v-1456zM183 1723h-119v128h120zM559 1723h-123v128h123v-128z" />
    <glyph glyph-name="Eth" unicode="&#xd0;" horiz-adv-x="1546" 
d="M13 688v102h200v666h302q137 0 258 -12.5t223 -43.5t183 -84t137.5 -134t86.5 -194t30 -263q0 -165 -55.5 -299t-161 -228.5t-257 -146t-343.5 -51.5h-405v688h-198zM341 114h294q169 0 293 45t205.5 125t121.5 191t40 243q0 174 -49 293t-145.5 192.5t-239 106
t-328.5 32.5h-189v-552h214v-102h-217v-574z" />
    <glyph glyph-name="Ntilde" unicode="&#xd1;" horiz-adv-x="1594" 
d="M343 1322v-1322h-131v1456h177l756 -1133l134 -221v340v1014h122v-1456h-180l-759 1132zM1058 1881h62q-4 -39 -17.5 -73.5t-36 -59.5t-53.5 -39.5t-69 -14.5q-24 0 -54 11t-64 24.5t-71 24.5t-73 11q-51 0 -81 -21.5t-35 -66.5h-58q8 82 55 132t125 50q30 0 60 -11.5
t61.5 -25t65.5 -24.5t71 -11q46 0 76.5 23t35.5 71z" />
    <glyph glyph-name="Ograve" unicode="&#xd2;" horiz-adv-x="1663" 
d="M1551 730q0 -165 -48.5 -303.5t-140.5 -238.5t-224.5 -155.5t-299.5 -55.5q-164 0 -294.5 53t-221.5 151t-139.5 236.5t-48.5 309.5q0 165 48.5 303.5t140.5 239t225 157t302 56.5q162 0 292 -53.5t221 -152t139.5 -237.5t48.5 -310zM271 725q0 -133 36.5 -248.5
t108.5 -201t178 -135t245 -49.5q141 0 247.5 49t177.5 135.5t106.5 204t35.5 255.5q0 133 -35 249t-105.5 201.5t-176.5 134.5t-248 49q-140 0 -246.5 -53t-178.5 -141.5t-108.5 -205.5t-36.5 -244zM506 1938h158l229 -292h-82z" />
    <glyph glyph-name="Oacute" unicode="&#xd3;" horiz-adv-x="1663" 
d="M841 1938h159l-285 -292h-80zM1551 730q0 -165 -48.5 -303.5t-140.5 -238.5t-224.5 -155.5t-299.5 -55.5q-164 0 -294.5 53t-221.5 151t-139.5 236.5t-48.5 309.5q0 165 48.5 303.5t140.5 239t225 157t302 56.5q162 0 292 -53.5t221 -152t139.5 -237.5t48.5 -310z
M271 725q0 -133 36.5 -248.5t108.5 -201t178 -135t245 -49.5q141 0 247.5 49t177.5 135.5t106.5 204t35.5 255.5q0 133 -35 249t-105.5 201.5t-176.5 134.5t-248 49q-140 0 -246.5 -53t-178.5 -141.5t-108.5 -205.5t-36.5 -244z" />
    <glyph glyph-name="Ocircumflex" unicode="&#xd4;" horiz-adv-x="1663" 
d="M568 1644l209 296h135l208 -296h-79l-199 240l-200 -240h-74zM1551 730q0 -165 -48.5 -303.5t-140.5 -238.5t-224.5 -155.5t-299.5 -55.5q-164 0 -294.5 53t-221.5 151t-139.5 236.5t-48.5 309.5q0 165 48.5 303.5t140.5 239t225 157t302 56.5q162 0 292 -53.5t221 -152
t139.5 -237.5t48.5 -310zM271 725q0 -133 36.5 -248.5t108.5 -201t178 -135t245 -49.5q141 0 247.5 49t177.5 135.5t106.5 204t35.5 255.5q0 133 -35 249t-105.5 201.5t-176.5 134.5t-248 49q-140 0 -246.5 -53t-178.5 -141.5t-108.5 -205.5t-36.5 -244z" />
    <glyph glyph-name="Otilde" unicode="&#xd5;" horiz-adv-x="1663" 
d="M1551 730q0 -165 -48.5 -303.5t-140.5 -238.5t-224.5 -155.5t-299.5 -55.5q-164 0 -294.5 53t-221.5 151t-139.5 236.5t-48.5 309.5q0 165 48.5 303.5t140.5 239t225 157t302 56.5q162 0 292 -53.5t221 -152t139.5 -237.5t48.5 -310zM271 725q0 -133 36.5 -248.5
t108.5 -201t178 -135t245 -49.5q141 0 247.5 49t177.5 135.5t106.5 204t35.5 255.5q0 133 -35 249t-105.5 201.5t-176.5 134.5t-248 49q-140 0 -246.5 -53t-178.5 -141.5t-108.5 -205.5t-36.5 -244zM1043 1881h62q-4 -39 -17.5 -73.5t-36 -59.5t-53.5 -39.5t-69 -14.5
q-24 0 -54 11t-64 24.5t-71 24.5t-73 11q-51 0 -81 -21.5t-35 -66.5h-58q8 82 55 132t125 50q30 0 60 -11.5t61.5 -25t65.5 -24.5t71 -11q46 0 76.5 23t35.5 71z" />
    <glyph glyph-name="Odieresis" unicode="&#xd6;" horiz-adv-x="1663" 
d="M677 1723h-119v128h120zM1053 1723h-123v128h123v-128zM1551 730q0 -165 -48.5 -303.5t-140.5 -238.5t-224.5 -155.5t-299.5 -55.5q-164 0 -294.5 53t-221.5 151t-139.5 236.5t-48.5 309.5q0 165 48.5 303.5t140.5 239t225 157t302 56.5q162 0 292 -53.5t221 -152
t139.5 -237.5t48.5 -310zM271 725q0 -133 36.5 -248.5t108.5 -201t178 -135t245 -49.5q141 0 247.5 49t177.5 135.5t106.5 204t35.5 255.5q0 133 -35 249t-105.5 201.5t-176.5 134.5t-248 49q-140 0 -246.5 -53t-178.5 -141.5t-108.5 -205.5t-36.5 -244z" />
    <glyph glyph-name="multiply" unicode="&#xd7;" horiz-adv-x="1458" 
d="M1047 911l80 -74l-312 -283l353 -282l-65 -72l-362 287l-316 -287l-78 72l309 282l-355 283l68 74l362 -289zM1169 272h-1l3 3zM345 272h2h-2z" />
    <glyph glyph-name="Oslash" unicode="&#xd8;" horiz-adv-x="1663" 
d="M1551 730q0 -165 -48.5 -303.5t-140.5 -238.5t-224.5 -155.5t-299.5 -55.5q-109 0 -205 24l-49 -127h-116l63 163q-192 85 -294.5 261.5t-102.5 428.5q0 165 48.5 303.5t140.5 239t225 157t302 56.5q123 0 223 -31l44 113h121l-60 -154q180 -90 276.5 -263.5t96.5 -417.5
zM271 725q0 -96 19 -183t57.5 -160.5t95.5 -132t132 -98.5l455 1190q-83 28 -189 28q-140 0 -246.5 -53t-178.5 -141.5t-108.5 -205.5t-36.5 -244zM839 91q141 0 247.5 49t177.5 135.5t106.5 204t35.5 255.5q0 187 -66.5 331t-206.5 228l-457 -1183q77 -20 163 -20z" />
    <glyph glyph-name="Ugrave" unicode="&#xd9;" horiz-adv-x="1532" 
d="M1212 1456h126l-5 -908q-1 -134 -36.5 -240t-106.5 -179.5t-177.5 -112.5t-248.5 -39q-137 0 -237 35t-167.5 102t-104.5 163t-46 219q-1 5 -1 8.5v8.5v19l6 924h125l-3 -913q0 -106 25.5 -189.5t79 -142t136.5 -89.5t197 -31q106 0 187 25t135 78t81.5 137t28.5 202z
M440 1938h158l229 -292h-82z" />
    <glyph glyph-name="Uacute" unicode="&#xda;" horiz-adv-x="1532" 
d="M775 1938h159l-285 -292h-80zM1212 1456h126l-5 -908q-1 -134 -36.5 -240t-106.5 -179.5t-177.5 -112.5t-248.5 -39q-137 0 -237 35t-167.5 102t-104.5 163t-46 219q-1 5 -1 8.5v8.5v19l6 924h125l-3 -913q0 -106 25.5 -189.5t79 -142t136.5 -89.5t197 -31q106 0 187 25
t135 78t81.5 137t28.5 202z" />
    <glyph glyph-name="Ucircumflex" unicode="&#xdb;" horiz-adv-x="1532" 
d="M490 1644l209 296h135l208 -296h-79l-199 240l-200 -240h-74zM1212 1456h126l-5 -908q-1 -134 -36.5 -240t-106.5 -179.5t-177.5 -112.5t-248.5 -39q-137 0 -237 35t-167.5 102t-104.5 163t-46 219q-1 5 -1 8.5v8.5v19l6 924h125l-3 -913q0 -106 25.5 -189.5t79 -142
t136.5 -89.5t197 -31q106 0 187 25t135 78t81.5 137t28.5 202z" />
    <glyph glyph-name="Udieresis" unicode="&#xdc;" horiz-adv-x="1532" 
d="M612 1723h-119v128h120zM988 1723h-123v128h123v-128zM1212 1456h126l-5 -908q-1 -134 -36.5 -240t-106.5 -179.5t-177.5 -112.5t-248.5 -39q-137 0 -237 35t-167.5 102t-104.5 163t-46 219q-1 5 -1 8.5v8.5v19l6 924h125l-3 -913q0 -106 25.5 -189.5t79 -142
t136.5 -89.5t197 -31q106 0 187 25t135 78t81.5 137t28.5 202z" />
    <glyph glyph-name="Yacute" unicode="&#xdd;" horiz-adv-x="1266" 
d="M707 588v-588h-133v582l-531 874h144l456 -765l463 765h138zM638 1938h159l-285 -292h-80z" />
    <glyph glyph-name="Thorn" unicode="&#xde;" horiz-adv-x="1274" 
d="M350 0h-126v1456h131v-219h198q84 0 164.5 -7.5t152.5 -26t132 -49.5t103.5 -78.5t68 -113t24.5 -152.5q0 -113 -48.5 -193.5t-130 -132t-189.5 -76t-227 -24.5h-246zM357 498h291q90 0 166 18t131 56t86 96t31 138q0 95 -34 156.5t-95 97t-147 49.5t-189 14h-240v-625z
" />
    <glyph glyph-name="germandbls" unicode="&#xdf;" horiz-adv-x="1257" 
d="M316 0h-121l-1 1093q0 99 28 179.5t82 137.5t132 88.5t179 31.5q93 0 167 -24.5t125 -67.5t78 -100t27 -122q0 -47 -15.5 -90t-40.5 -81t-57 -70t-64.5 -58t-62.5 -45.5t-52 -30.5q-11 -8 -14.5 -12t-3.5 -12q0 -11 5.5 -16t18.5 -10q52 -21 106 -44.5t104.5 -53
t94.5 -65t77 -79t52 -96.5t19 -117q0 -81 -31.5 -147t-83 -113t-118.5 -73t-139 -26q-85 0 -163 35t-138 114l43 67q51 -60 119 -89t138 -29q46 0 88 15.5t73.5 46t50 75t18.5 103.5q0 88 -38 154t-99 118t-137.5 96t-154.5 89l18 123q47 22 91 54t77.5 72.5t54 89.5
t20.5 104q0 51 -18 91.5t-51.5 68t-81 42.5t-105.5 15q-83 0 -139.5 -26.5t-91.5 -75t-51 -118t-16 -155.5z" />
    <glyph glyph-name="agrave" unicode="&#xe0;" 
d="M596 1051q72 0 129.5 -15.5t105 -44t87 -69.5t75.5 -93l5 197h120v-244v-782h-126l2 219q-14 -41 -49 -83.5t-87 -78t-119.5 -58t-145.5 -22.5q-127 0 -218.5 49.5t-150.5 128t-87 176t-28 193.5q0 99 30 194t91 169t152 119t214 45zM997 525q-6 81 -27.5 157.5
t-66.5 136.5t-117.5 96t-180.5 36q-101 0 -172.5 -39t-117.5 -101.5t-67 -139.5t-21 -153t16 -154.5t58.5 -142.5t118 -105t194.5 -41q80 0 150 26t121.5 79t81.5 133t30 187v25zM330 1508h158l229 -292h-82z" />
    <glyph glyph-name="aacute" unicode="&#xe1;" 
d="M596 1051q72 0 129.5 -15.5t105 -44t87 -69.5t75.5 -93l5 197h120v-244v-782h-126l2 219q-14 -41 -49 -83.5t-87 -78t-119.5 -58t-145.5 -22.5q-127 0 -218.5 49.5t-150.5 128t-87 176t-28 193.5q0 99 30 194t91 169t152 119t214 45zM997 525q-6 81 -27.5 157.5
t-66.5 136.5t-117.5 96t-180.5 36q-101 0 -172.5 -39t-117.5 -101.5t-67 -139.5t-21 -153t16 -154.5t58.5 -142.5t118 -105t194.5 -41q80 0 150 26t121.5 79t81.5 133t30 187v25zM664 1508h159l-285 -292h-80z" />
    <glyph glyph-name="acircumflex" unicode="&#xe2;" 
d="M596 1051q72 0 129.5 -15.5t105 -44t87 -69.5t75.5 -93l5 197h120v-244v-782h-126l2 219q-14 -41 -49 -83.5t-87 -78t-119.5 -58t-145.5 -22.5q-127 0 -218.5 49.5t-150.5 128t-87 176t-28 193.5q0 99 30 194t91 169t152 119t214 45zM997 525q-6 81 -27.5 157.5
t-66.5 136.5t-117.5 96t-180.5 36q-101 0 -172.5 -39t-117.5 -101.5t-67 -139.5t-21 -153t16 -154.5t58.5 -142.5t118 -105t194.5 -41q80 0 150 26t121.5 79t81.5 133t30 187v25zM328 1214l209 296h135l208 -296h-79l-199 240l-200 -240h-74z" />
    <glyph glyph-name="atilde" unicode="&#xe3;" 
d="M596 1051q72 0 129.5 -15.5t105 -44t87 -69.5t75.5 -93l5 197h120v-244v-782h-126l2 219q-14 -41 -49 -83.5t-87 -78t-119.5 -58t-145.5 -22.5q-127 0 -218.5 49.5t-150.5 128t-87 176t-28 193.5q0 99 30 194t91 169t152 119t214 45zM997 525q-6 81 -27.5 157.5
t-66.5 136.5t-117.5 96t-180.5 36q-101 0 -172.5 -39t-117.5 -101.5t-67 -139.5t-21 -153t16 -154.5t58.5 -142.5t118 -105t194.5 -41q80 0 150 26t121.5 79t81.5 133t30 187v25zM867 1451h62q-4 -39 -17.5 -73.5t-36 -59.5t-53.5 -39.5t-69 -14.5q-24 0 -54 11t-64 24.5
t-71 24.5t-73 11q-51 0 -81 -21.5t-35 -66.5h-58q8 82 55 132t125 50q30 0 60 -11.5t61.5 -25t65.5 -24.5t71 -11q46 0 76.5 23t35.5 71z" />
    <glyph glyph-name="adieresis" unicode="&#xe4;" 
d="M596 1051q72 0 129.5 -15.5t105 -44t87 -69.5t75.5 -93l5 197h120v-244v-782h-126l2 219q-14 -41 -49 -83.5t-87 -78t-119.5 -58t-145.5 -22.5q-127 0 -218.5 49.5t-150.5 128t-87 176t-28 193.5q0 99 30 194t91 169t152 119t214 45zM997 525q-6 81 -27.5 157.5
t-66.5 136.5t-117.5 96t-180.5 36q-101 0 -172.5 -39t-117.5 -101.5t-67 -139.5t-21 -153t16 -154.5t58.5 -142.5t118 -105t194.5 -41q80 0 150 26t121.5 79t81.5 133t30 187v25zM501 1293h-119v128h120zM877 1293h-123v128h123v-128z" />
    <glyph glyph-name="aring" unicode="&#xe5;" 
d="M596 1051q72 0 129.5 -15.5t105 -44t87 -69.5t75.5 -93l5 197h120v-244v-782h-126l2 219q-14 -41 -49 -83.5t-87 -78t-119.5 -58t-145.5 -22.5q-127 0 -218.5 49.5t-150.5 128t-87 176t-28 193.5q0 99 30 194t91 169t152 119t214 45zM997 525q-6 81 -27.5 157.5
t-66.5 136.5t-117.5 96t-180.5 36q-101 0 -172.5 -39t-117.5 -101.5t-67 -139.5t-21 -153t16 -154.5t58.5 -142.5t118 -105t194.5 -41q80 0 150 26t121.5 79t81.5 133t30 187v25zM784 1371q0 27 -12 51.5t-33 44t-49.5 31t-61.5 11.5q-29 0 -55.5 -11.5t-47 -30.5t-33 -44
t-12.5 -52q0 -62 41.5 -101.5t111.5 -39.5q30 0 57 11.5t48 31t33.5 45t12.5 53.5zM440 1370q0 38 15.5 71t42 57t62 37.5t75.5 13.5t74.5 -13.5t60.5 -37.5t41 -56.5t15 -70.5q0 -37 -15.5 -70t-42 -58t-62 -39.5t-75.5 -14.5q-39 0 -74 13.5t-61 37.5t-41 57.5t-15 72.5z
" />
    <glyph glyph-name="ae" unicode="&#xe6;" horiz-adv-x="1807" 
d="M226 810l-69 68q55 94 159 134.5t241 40.5q60 -2 114.5 -18t97 -47.5t71.5 -79t39 -111.5h5q28 67 71 115t94.5 79.5t110.5 46.5t120 15q112 0 194.5 -40.5t137 -110t81 -162t26.5 -195.5v-24t-1 -23h-780v-42q0 -78 18.5 -146.5t59 -120t104 -81t153.5 -29.5
q112 0 199.5 47.5t141.5 131.5l68 -68q-64 -106 -170.5 -160.5t-251.5 -54.5q-66 0 -126.5 17t-110.5 49.5t-89 81t-63 111.5q-29 -75 -71 -124t-96 -79t-120 -43t-143 -16q-77 0 -140.5 21t-109.5 61t-71.5 96.5t-25.5 128.5t25 127t72 93t115 59.5t154 27.5
q89 9 172.5 12.5t177.5 5.5l-1 14q-1 6 -1 14t-1 17q-5 64 -19 119.5t-43.5 96t-78 63.5t-121.5 23q-52 0 -100 -7.5t-89.5 -24.5t-74.5 -43.5t-55 -65.5zM809 498l-177 -3q-80 -2 -154.5 -9.5t-131.5 -30t-91.5 -63.5t-34.5 -109q0 -56 21.5 -95.5t57 -64.5t82 -36.5
t96.5 -11.5q95 0 159 33t102.5 88.5t54.5 127.5t16 150v24zM936 600h662q0 5 0.5 11.5t0.5 11.5q0 64 -20.5 123t-61 104.5t-100 73t-137.5 27.5q-81 0 -145 -28.5t-108 -77t-67 -112t-24 -133.5z" />
    <glyph glyph-name="ccedilla" unicode="&#xe7;" horiz-adv-x="1046" 
d="M903 848q-42 51 -113 77t-159 26q-92 0 -164 -35t-122.5 -95t-77 -140.5t-26.5 -171.5t22.5 -170.5t70 -138t121 -92t175.5 -33.5q186 0 302 100l30 -97q-66 -54 -154 -77.5t-194 -23.5q-125 0 -219 41t-157 112t-94.5 166.5t-31.5 203.5q0 113 34 213t98.5 175t159 119
t216.5 44q117 0 201.5 -33.5t134.5 -93.5zM452 -342q34 -11 68 -16t67 -5q76 0 108 25.5t32 66.5q0 28 -10.5 46.5t-30 30t-47 16t-61.5 4.5h3.5t2.5 -1q-4 0 -7 -1l-30 -3l30 159h47l-18 -110q7 0 13 0.5t13 0.5q41 0 76.5 -7.5t62 -24t41.5 -42.5t15 -63t-17 -64.5
t-47.5 -45.5t-72.5 -27t-91 -9q-42 0 -79 5t-73 14z" />
    <glyph glyph-name="egrave" unicode="&#xe8;" horiz-adv-x="1173" 
d="M268 593h687v2v-7q-3 81 -22.5 147.5t-58.5 114.5t-99.5 74.5t-145.5 26.5q-83 0 -147 -28.5t-109 -77.5t-71.5 -114t-33.5 -138zM1001 202l36 -96q-75 -69 -174.5 -99t-224.5 -30q-119 0 -212.5 39.5t-158 110t-98.5 168t-34 213.5q0 111 34 210t98 173t156.5 117
t209.5 43q116 0 201.5 -39t141 -108.5t82.5 -166.5t27 -214q0 -8 -0.5 -17.5t-0.5 -14.5h-818v-19q0 -89 26.5 -162t76.5 -125t121 -81t161 -29q112 0 201 33t149 94zM295 1508h158l229 -292h-82z" />
    <glyph glyph-name="eacute" unicode="&#xe9;" horiz-adv-x="1173" 
d="M629 1508h159l-285 -292h-80zM268 593h687v2v-7q-3 81 -22.5 147.5t-58.5 114.5t-99.5 74.5t-145.5 26.5q-83 0 -147 -28.5t-109 -77.5t-71.5 -114t-33.5 -138zM1001 202l36 -96q-75 -69 -174.5 -99t-224.5 -30q-119 0 -212.5 39.5t-158 110t-98.5 168t-34 213.5
q0 111 34 210t98 173t156.5 117t209.5 43q116 0 201.5 -39t141 -108.5t82.5 -166.5t27 -214q0 -8 -0.5 -17.5t-0.5 -14.5h-818v-19q0 -89 26.5 -162t76.5 -125t121 -81t161 -29q112 0 201 33t149 94z" />
    <glyph glyph-name="ecircumflex" unicode="&#xea;" horiz-adv-x="1173" 
d="M357 1214l209 296h135l208 -296h-79l-199 240l-200 -240h-74zM268 593h687v2v-7q-3 81 -22.5 147.5t-58.5 114.5t-99.5 74.5t-145.5 26.5q-83 0 -147 -28.5t-109 -77.5t-71.5 -114t-33.5 -138zM1001 202l36 -96q-75 -69 -174.5 -99t-224.5 -30q-119 0 -212.5 39.5
t-158 110t-98.5 168t-34 213.5q0 111 34 210t98 173t156.5 117t209.5 43q116 0 201.5 -39t141 -108.5t82.5 -166.5t27 -214q0 -8 -0.5 -17.5t-0.5 -14.5h-818v-19q0 -89 26.5 -162t76.5 -125t121 -81t161 -29q112 0 201 33t149 94z" />
    <glyph glyph-name="edieresis" unicode="&#xeb;" horiz-adv-x="1173" 
d="M502 1293h-119v128h120zM878 1293h-123v128h123v-128zM268 593h687v2v-7q-3 81 -22.5 147.5t-58.5 114.5t-99.5 74.5t-145.5 26.5q-83 0 -147 -28.5t-109 -77.5t-71.5 -114t-33.5 -138zM1001 202l36 -96q-75 -69 -174.5 -99t-224.5 -30q-119 0 -212.5 39.5t-158 110
t-98.5 168t-34 213.5q0 111 34 210t98 173t156.5 117t209.5 43q116 0 201.5 -39t141 -108.5t82.5 -166.5t27 -214q0 -8 -0.5 -17.5t-0.5 -14.5h-818v-19q0 -89 26.5 -162t76.5 -125t121 -81t161 -29q112 0 201 33t149 94z" />
    <glyph glyph-name="igrave" unicode="&#xec;" horiz-adv-x="503" 
d="M317 0h-124v1026h124v-1026zM-39 1508h158l229 -292h-82z" />
    <glyph glyph-name="iacute" unicode="&#xed;" horiz-adv-x="503" 
d="M295 1508h159l-285 -292h-80zM317 0h-124v1026h124v-1026z" />
    <glyph glyph-name="icircumflex" unicode="&#xee;" horiz-adv-x="503" 
d="M-41 1214l209 296h135l208 -296h-79l-199 240l-200 -240h-74zM317 0h-124v1026h124v-1026z" />
    <glyph glyph-name="idieresis" unicode="&#xef;" horiz-adv-x="503" 
d="M132 1293h-119v128h120zM508 1293h-123v128h123v-128zM317 0h-124v1026h124v-1026z" />
    <glyph glyph-name="eth" unicode="&#xf0;" horiz-adv-x="1190" 
d="M1071 1026q9 -36 16.5 -70.5t12.5 -71t7.5 -77t2.5 -86.5q0 -170 -37 -307.5t-107.5 -234.5t-174 -149.5t-236.5 -52.5q-106 0 -191.5 34t-146 94t-93 142t-32.5 177q0 100 34.5 186t96.5 149t149.5 99t194.5 36q152 0 255 -65.5t150 -190.5q4 29 5.5 65t1.5 68
q0 69 -10 130t-28 125h-233v102h197q-47 109 -124 193t-189 124l59 94q141 -60 236.5 -164.5t150.5 -246.5h211v-102h-178zM591 785q-96 0 -165 -29.5t-114 -79t-66.5 -115t-21.5 -136.5q0 -73 23 -135t66 -107t103 -70.5t134 -25.5q99 0 172.5 38.5t122 102t72.5 146.5
t24 172q-15 52 -47 96t-77.5 75.5t-103 49.5t-122.5 18z" />
    <glyph glyph-name="ntilde" unicode="&#xf1;" horiz-adv-x="1217" 
d="M311 0h-124v788l-9 238h130l6 -201q121 226 380 226q75 0 131.5 -18t97 -49.5t66.5 -73.5t40 -90.5t20 -101t6 -104.5q1 -27 1 -100.5v-180.5v-333h-124v542q0 54 -0.5 85t-1.5 40q-5 141 -75.5 212.5t-193.5 71.5q-56 0 -103.5 -14.5t-86 -38.5t-67.5 -54.5t-51 -63
t-32 -63.5t-10 -56v-661zM854 1451h62q-4 -39 -17.5 -73.5t-36 -59.5t-53.5 -39.5t-69 -14.5q-24 0 -54 11t-64 24.5t-71 24.5t-73 11q-51 0 -81 -21.5t-35 -66.5h-58q8 82 55 132t125 50q30 0 60 -11.5t61.5 -25t65.5 -24.5t71 -11q46 0 76.5 23t35.5 71z" />
    <glyph glyph-name="ograve" unicode="&#xf2;" horiz-adv-x="1238" 
d="M633 1051q128 0 224 -41.5t160.5 -114t97 -170.5t32.5 -210q0 -110 -34.5 -207.5t-100.5 -171t-163.5 -116.5t-223.5 -43q-125 0 -221 41t-161.5 113t-99 169t-33.5 209t34.5 211t101 172.5t164 116t223.5 42.5zM1017 511q0 89 -23.5 169t-71.5 140t-121.5 95.5
t-174.5 35.5q-96 0 -168 -36.5t-121 -98t-73.5 -141t-24.5 -165.5t24.5 -165t74 -139t123 -95.5t171.5 -35.5q96 0 168.5 36t120.5 96t72 139t24 165zM327 1508h158l229 -292h-82z" />
    <glyph glyph-name="oacute" unicode="&#xf3;" horiz-adv-x="1238" 
d="M661 1508h159l-285 -292h-80zM633 1051q128 0 224 -41.5t160.5 -114t97 -170.5t32.5 -210q0 -110 -34.5 -207.5t-100.5 -171t-163.5 -116.5t-223.5 -43q-125 0 -221 41t-161.5 113t-99 169t-33.5 209t34.5 211t101 172.5t164 116t223.5 42.5zM1017 511q0 89 -23.5 169
t-71.5 140t-121.5 95.5t-174.5 35.5q-96 0 -168 -36.5t-121 -98t-73.5 -141t-24.5 -165.5t24.5 -165t74 -139t123 -95.5t171.5 -35.5q96 0 168.5 36t120.5 96t72 139t24 165z" />
    <glyph glyph-name="ocircumflex" unicode="&#xf4;" horiz-adv-x="1238" 
d="M325 1214l209 296h135l208 -296h-79l-199 240l-200 -240h-74zM633 1051q128 0 224 -41.5t160.5 -114t97 -170.5t32.5 -210q0 -110 -34.5 -207.5t-100.5 -171t-163.5 -116.5t-223.5 -43q-125 0 -221 41t-161.5 113t-99 169t-33.5 209t34.5 211t101 172.5t164 116
t223.5 42.5zM1017 511q0 89 -23.5 169t-71.5 140t-121.5 95.5t-174.5 35.5q-96 0 -168 -36.5t-121 -98t-73.5 -141t-24.5 -165.5t24.5 -165t74 -139t123 -95.5t171.5 -35.5q96 0 168.5 36t120.5 96t72 139t24 165z" />
    <glyph glyph-name="otilde" unicode="&#xf5;" horiz-adv-x="1238" 
d="M633 1051q128 0 224 -41.5t160.5 -114t97 -170.5t32.5 -210q0 -110 -34.5 -207.5t-100.5 -171t-163.5 -116.5t-223.5 -43q-125 0 -221 41t-161.5 113t-99 169t-33.5 209t34.5 211t101 172.5t164 116t223.5 42.5zM1017 511q0 89 -23.5 169t-71.5 140t-121.5 95.5
t-174.5 35.5q-96 0 -168 -36.5t-121 -98t-73.5 -141t-24.5 -165.5t24.5 -165t74 -139t123 -95.5t171.5 -35.5q96 0 168.5 36t120.5 96t72 139t24 165zM864 1451h62q-4 -39 -17.5 -73.5t-36 -59.5t-53.5 -39.5t-69 -14.5q-24 0 -54 11t-64 24.5t-71 24.5t-73 11
q-51 0 -81 -21.5t-35 -66.5h-58q8 82 55 132t125 50q30 0 60 -11.5t61.5 -25t65.5 -24.5t71 -11q46 0 76.5 23t35.5 71z" />
    <glyph glyph-name="odieresis" unicode="&#xf6;" horiz-adv-x="1238" 
d="M498 1293h-119v128h120zM874 1293h-123v128h123v-128zM633 1051q128 0 224 -41.5t160.5 -114t97 -170.5t32.5 -210q0 -110 -34.5 -207.5t-100.5 -171t-163.5 -116.5t-223.5 -43q-125 0 -221 41t-161.5 113t-99 169t-33.5 209t34.5 211t101 172.5t164 116t223.5 42.5z
M1017 511q0 89 -23.5 169t-71.5 140t-121.5 95.5t-174.5 35.5q-96 0 -168 -36.5t-121 -98t-73.5 -141t-24.5 -165.5t24.5 -165t74 -139t123 -95.5t171.5 -35.5q96 0 168.5 36t120.5 96t72 139t24 165z" />
    <glyph glyph-name="divide" unicode="&#xf7;" horiz-adv-x="1458" 
d="M218 504v104h1038v-104h-1038zM829 58h-172v179h173zM834 875h-173v179h173v-179z" />
    <glyph glyph-name="oslash" unicode="&#xf8;" horiz-adv-x="1238" 
d="M310 -175l77 202q-68 31 -119.5 80t-86.5 111.5t-53 136t-18 154.5q0 112 34.5 211t101 172.5t164 116t223.5 42.5q75 0 140 -15l59 153h121l-74 -191q67 -33 117.5 -83t84 -112t50 -135.5t16.5 -152.5q0 -110 -34.5 -207.5t-100.5 -171t-163.5 -116.5t-223.5 -43
q-35 0 -68.5 3.5t-66.5 10.5l-64 -166h-116zM626 951q-96 0 -168 -36.5t-121 -98t-73.5 -141t-24.5 -165.5q0 -59 11.5 -114.5t34.5 -104.5t58.5 -90t82.5 -71l309 808q-48 13 -109 13zM1017 511q0 121 -43 221t-136 161l-312 -806q49 -12 106 -12q96 0 168.5 36t120.5 96
t72 139t24 165z" />
    <glyph glyph-name="ugrave" unicode="&#xf9;" horiz-adv-x="1217" 
d="M925 1026h124v-789q0 -16 1 -75t4 -162h-129v203q-56 -118 -150 -172t-229 -54q-111 0 -182.5 38t-113 98t-57.5 134.5t-16 148.5v630h124v-621q3 -81 16 -142.5t47.5 -103t89.5 -63t135 -21.5q81 0 143.5 26.5t105 73t65 109.5t22.5 137v12v593zM317 1508h158l229 -292
h-82z" />
    <glyph glyph-name="uacute" unicode="&#xfa;" horiz-adv-x="1217" 
d="M651 1508h159l-285 -292h-80zM925 1026h124v-789q0 -16 1 -75t4 -162h-129v203q-56 -118 -150 -172t-229 -54q-111 0 -182.5 38t-113 98t-57.5 134.5t-16 148.5v630h124v-621q3 -81 16 -142.5t47.5 -103t89.5 -63t135 -21.5q81 0 143.5 26.5t105 73t65 109.5t22.5 137v12
v593z" />
    <glyph glyph-name="ucircumflex" unicode="&#xfb;" horiz-adv-x="1217" 
d="M314 1214l209 296h135l208 -296h-79l-199 240l-200 -240h-74zM925 1026h124v-789q0 -16 1 -75t4 -162h-129v203q-56 -118 -150 -172t-229 -54q-111 0 -182.5 38t-113 98t-57.5 134.5t-16 148.5v630h124v-621q3 -81 16 -142.5t47.5 -103t89.5 -63t135 -21.5
q81 0 143.5 26.5t105 73t65 109.5t22.5 137v12v593z" />
    <glyph glyph-name="udieresis" unicode="&#xfc;" horiz-adv-x="1217" 
d="M487 1293h-119v128h120zM863 1293h-123v128h123v-128zM925 1026h124v-789q0 -16 1 -75t4 -162h-129v203q-56 -118 -150 -172t-229 -54q-111 0 -182.5 38t-113 98t-57.5 134.5t-16 148.5v630h124v-621q3 -81 16 -142.5t47.5 -103t89.5 -63t135 -21.5q81 0 143.5 26.5
t105 73t65 109.5t22.5 137v12v593z" />
    <glyph glyph-name="yacute" unicode="&#xfd;" horiz-adv-x="1069" 
d="M46 1026h131l363 -936l376 936h128l-463 -1110q-28 -67 -65 -126.5t-83.5 -106t-102.5 -78.5t-122 -44l-67 81q81 21 134 54t87 72t54 81t36 80l25 61zM572 1508h159l-285 -292h-80z" />
    <glyph glyph-name="thorn" unicode="&#xfe;" horiz-adv-x="1239" 
d="M301 -443h-121v1526l-18 259h136l3 -524q61 123 166 178t239 55q112 0 194.5 -41.5t137 -112.5t81.5 -166t27 -202q0 -109 -29 -209t-87 -176t-145.5 -121.5t-204.5 -45.5q-249 0 -381 217zM299 494q0 -90 24 -166.5t70 -133t113 -88t154 -31.5q93 0 160 36.5t110 98
t63.5 142t20.5 169.5q0 83 -18 160.5t-59.5 137.5t-108.5 96t-164 36q-103 0 -173 -38t-112.5 -101t-61 -145.5t-18.5 -172.5z" />
    <glyph glyph-name="ydieresis" unicode="&#xff;" horiz-adv-x="1069" 
d="M46 1026h131l363 -936l376 936h128l-463 -1110q-28 -67 -65 -126.5t-83.5 -106t-102.5 -78.5t-122 -44l-67 81q81 21 134 54t87 72t54 81t36 80l25 61zM413 1293h-119v128h120zM789 1293h-123v128h123v-128z" />
    <glyph glyph-name="dotlessi" unicode="&#x131;" horiz-adv-x="503" 
d="M317 0h-124v1026h124v-1026z" />
    <glyph glyph-name="Lslash" unicode="&#x141;" horiz-adv-x="1120" 
d="M1068 0h-844v618l-248 -110v102l251 109v737h128v-681l462 205v-102l-464 -204v-560h715v-114z" />
    <glyph glyph-name="lslash" unicode="&#x142;" horiz-adv-x="503" 
d="M315 1508v-750l234 104v-102l-235 -103v-657h-121v604l-217 -96v102l218 95v803h121z" />
    <glyph glyph-name="OE" unicode="&#x152;" horiz-adv-x="2099" 
d="M125 727q0 166 48.5 304.5t139.5 239t221 156.5t294 56q103 0 193.5 -20.5t173.5 -78.5q3 17 6 35t4 36l764 1v-114h-648v-538h610v-113h-611v-577h679v-114h-810l-1 110q-26 -22 -65.5 -45.5t-96 -43t-132 -32t-172.5 -12.5q-102 0 -186 27t-150 76t-115.5 117.5
t-81.5 152t-48 179t-16 198.5zM1188 1302q-29 11 -65.5 23t-81.5 21.5t-98 16t-115 6.5q-140 0 -246 -53t-177 -142.5t-107 -205.5t-36 -242q0 -167 38 -289.5t104 -203t155.5 -119.5t193.5 -39q102 0 209.5 35.5t217.5 104.5l8 823v264z" />
    <glyph glyph-name="oe" unicode="&#x153;" horiz-adv-x="1970" 
d="M1895 491l-783 4v-45q0 -76 20 -144t62 -119.5t107.5 -81.5t156.5 -30q55 0 106.5 12.5t96 35t80.5 54.5t61 71l57 -58q-66 -112 -173 -165t-245 -53q-70 0 -132 16.5t-112 50t-87.5 83.5t-58.5 118q0 2 -6.5 3t-5.5 3q-57 -138 -167 -206t-259 -68q-122 0 -216.5 42
t-159.5 114.5t-98.5 170t-33.5 208.5q0 112 35 211.5t101.5 173.5t163.5 117.5t222 43.5q162 0 265 -68t161 -204q52 135 153.5 203.5t248.5 68.5q115 0 198 -40.5t137 -114.5t79.5 -177.5t25.5 -229.5zM1112 593h650v41q0 66 -19.5 124t-58 100.5t-96 67.5t-133.5 25
q-81 0 -144.5 -29.5t-107.5 -79t-67.5 -114.5t-23.5 -135zM990 511q0 93 -22.5 173.5t-68.5 139.5t-116.5 93t-166.5 34q-94 0 -165 -36.5t-119 -98t-72.5 -142t-24.5 -168.5q0 -87 24 -165t72.5 -137.5t122 -94t172.5 -34.5q94 0 162.5 36t113.5 96.5t66.5 139t21.5 164.5z
" />
    <glyph glyph-name="Scaron" unicode="&#x160;" 
d="M207 250q49 -55 98.5 -86.5t99 -47.5t98.5 -20.5t97 -4.5q86 0 158 17t123.5 50t80.5 82t29 114q0 74 -35.5 125.5t-94 89.5t-132.5 67t-152 57.5t-152 62t-132.5 80t-94 111t-35.5 156.5q0 94 44 165t117 119t165.5 72t190.5 24q48 0 99 -6.5t101 -21.5t96.5 -40.5
t85.5 -63.5l-49 -93q-69 60 -157.5 85t-177.5 25q-68 0 -135 -14t-120.5 -45t-87 -79t-33.5 -115q0 -71 35.5 -121t94 -88.5t133 -69t152.5 -61.5t152.5 -66t133 -83.5t94 -113.5t35.5 -156q0 -70 -22.5 -125.5t-62.5 -97.5t-93 -71.5t-115 -48.5t-128.5 -27.5t-132.5 -8.5
q-129 0 -239.5 48t-185.5 145zM905 1939l-218 -295h-134l-219 295h98l181 -240l191 240h101z" />
    <glyph glyph-name="scaron" unicode="&#x161;" horiz-adv-x="1007" 
d="M800 894q-44 27 -120.5 42t-167.5 15q-53 0 -98 -11.5t-77.5 -33t-50.5 -52t-18 -69.5q0 -50 14.5 -79t42.5 -47.5t69 -30t94 -25t117 -34t138 -56.5q27 -13 56 -31.5t53 -46.5t39 -66.5t15 -90.5q0 -77 -35.5 -133.5t-93.5 -94t-132.5 -55.5t-152.5 -18
q-53 0 -104.5 5.5t-97.5 18t-84.5 32.5t-64.5 49l31 94q23 -26 58 -45t76.5 -31.5t88 -18.5t93.5 -6q63 0 116 12t91.5 35t59.5 58t21 81q0 53 -24 88t-67 59t-101 41.5t-127 36.5q-73 22 -131.5 46t-100 57t-64 78.5t-22.5 111.5q0 69 31.5 120t83.5 85t117.5 50.5
t134.5 16.5q100 0 184.5 -18t138.5 -60zM778 1509l-218 -295h-134l-219 295h98l181 -240l191 240h101z" />
    <glyph glyph-name="Ydieresis" unicode="&#x178;" horiz-adv-x="1266" 
d="M707 588v-588h-133v582l-531 874h144l456 -765l463 765h138zM547 1723h-119v128h120zM923 1723h-123v128h123v-128z" />
    <glyph glyph-name="Zcaron" unicode="&#x17d;" horiz-adv-x="1222" 
d="M1143 0h-1067v70l907 1272h-870v114h1044v-66l-912 -1276h898v-114zM872 1939l-218 -295h-134l-219 295h98l181 -240l191 240h101z" />
    <glyph glyph-name="zcaron" unicode="&#x17e;" horiz-adv-x="958" 
d="M78 67l643 855h-615v104h776v-65l-640 -858h657l-20 -103h-801v67zM771 1509l-218 -295h-134l-219 295h98l181 -240l191 240h101z" />
    <glyph glyph-name="florin" unicode="&#x192;" horiz-adv-x="702" 
d="M398 0h-126v920h-205v106h208l-2 134q0 8 -0.5 15t-0.5 15q0 81 16.5 144.5t51.5 108t89.5 67.5t130.5 23q22 0 38 -1.5t29 -3.5t24.5 -5.5t26.5 -7.5l-1 -96q-12 4 -33.5 7t-57.5 3q-60 0 -98 -15.5t-59 -46.5t-28.5 -76t-7.5 -104l2 -161h258v-106h-255v-920z" />
    <glyph glyph-name="uni0200" unicode="&#x200;" horiz-adv-x="1425" 
d="M177 0h-139l609 1456h151l603 -1456h-141l-179 426h-734zM382 520h665l-246 648l-79 221l-77 -221zM549 1648l-298 285h123l242 -285h-67zM827 1648l-294 285h120l243 -285h-69z" />
    <glyph glyph-name="uni0201" unicode="&#x201;" 
d="M596 1051q72 0 129.5 -15.5t105 -44t87 -69.5t75.5 -93l5 197h120v-244v-782h-126l2 219q-14 -41 -49 -83.5t-87 -78t-119.5 -58t-145.5 -22.5q-127 0 -218.5 49.5t-150.5 128t-87 176t-28 193.5q0 99 30 194t91 169t152 119t214 45zM997 525q-6 81 -27.5 157.5
t-66.5 136.5t-117.5 96t-180.5 36q-101 0 -172.5 -39t-117.5 -101.5t-67 -139.5t-21 -153t16 -154.5t58.5 -142.5t118 -105t194.5 -41q80 0 150 26t121.5 79t81.5 133t30 187v25zM491 1218l-298 285h123l242 -285h-67zM769 1218l-294 285h120l243 -285h-69z" />
    <glyph glyph-name="uni0202" unicode="&#x202;" horiz-adv-x="1425" 
d="M177 0h-139l609 1456h151l603 -1456h-141l-179 426h-734zM382 520h665l-246 648l-79 221l-77 -221zM416 1692q5 53 26.5 92t56.5 65t82 38.5t103 12.5q116 0 186.5 -50.5t78.5 -157.5h-40q-6 37 -27 63t-51.5 42.5t-67.5 23.5t-76 7t-76.5 -8t-68.5 -24.5t-54 -42.5
t-32 -61h-40z" />
    <glyph glyph-name="uni0203" unicode="&#x203;" 
d="M596 1051q72 0 129.5 -15.5t105 -44t87 -69.5t75.5 -93l5 197h120v-244v-782h-126l2 219q-14 -41 -49 -83.5t-87 -78t-119.5 -58t-145.5 -22.5q-127 0 -218.5 49.5t-150.5 128t-87 176t-28 193.5q0 99 30 194t91 169t152 119t214 45zM997 525q-6 81 -27.5 157.5
t-66.5 136.5t-117.5 96t-180.5 36q-101 0 -172.5 -39t-117.5 -101.5t-67 -139.5t-21 -153t16 -154.5t58.5 -142.5t118 -105t194.5 -41q80 0 150 26t121.5 79t81.5 133t30 187v25zM257 1262q5 53 26.5 92t56.5 65t82 38.5t103 12.5q116 0 186.5 -50.5t78.5 -157.5h-40
q-6 37 -27 63t-51.5 42.5t-67.5 23.5t-76 7t-76.5 -8t-68.5 -24.5t-54 -42.5t-32 -61h-40z" />
    <glyph glyph-name="uni0204" unicode="&#x204;" horiz-adv-x="1218" 
d="M1096 114v-114h-870v1456h842v-114h-710v-538h670v-113h-672v-577h740zM446 1648l-298 285h123l242 -285h-67zM724 1648l-294 285h120l243 -285h-69z" />
    <glyph glyph-name="uni0205" unicode="&#x205;" horiz-adv-x="1173" 
d="M268 593h687v2v-7q-3 81 -22.5 147.5t-58.5 114.5t-99.5 74.5t-145.5 26.5q-83 0 -147 -28.5t-109 -77.5t-71.5 -114t-33.5 -138zM1001 202l36 -96q-75 -69 -174.5 -99t-224.5 -30q-119 0 -212.5 39.5t-158 110t-98.5 168t-34 213.5q0 111 34 210t98 173t156.5 117
t209.5 43q116 0 201.5 -39t141 -108.5t82.5 -166.5t27 -214q0 -8 -0.5 -17.5t-0.5 -14.5h-818v-19q0 -89 26.5 -162t76.5 -125t121 -81t161 -29q112 0 201 33t149 94zM457 1218l-298 285h123l242 -285h-67zM735 1218l-294 285h120l243 -285h-69z" />
    <glyph glyph-name="uni0206" unicode="&#x206;" horiz-adv-x="1218" 
d="M1096 114v-114h-870v1456h842v-114h-710v-538h670v-113h-672v-577h740zM313 1692q5 53 26.5 92t56.5 65t82 38.5t103 12.5q116 0 186.5 -50.5t78.5 -157.5h-40q-6 37 -27 63t-51.5 42.5t-67.5 23.5t-76 7t-76.5 -8t-68.5 -24.5t-54 -42.5t-32 -61h-40z" />
    <glyph glyph-name="uni0207" unicode="&#x207;" horiz-adv-x="1173" 
d="M268 593h687v2v-7q-3 81 -22.5 147.5t-58.5 114.5t-99.5 74.5t-145.5 26.5q-83 0 -147 -28.5t-109 -77.5t-71.5 -114t-33.5 -138zM1001 202l36 -96q-75 -69 -174.5 -99t-224.5 -30q-119 0 -212.5 39.5t-158 110t-98.5 168t-34 213.5q0 111 34 210t98 173t156.5 117
t209.5 43q116 0 201.5 -39t141 -108.5t82.5 -166.5t27 -214q0 -8 -0.5 -17.5t-0.5 -14.5h-818v-19q0 -89 26.5 -162t76.5 -125t121 -81t161 -29q112 0 201 33t149 94zM349 1262q5 53 26.5 92t56.5 65t82 38.5t103 12.5q116 0 186.5 -50.5t78.5 -157.5h-40q-6 37 -27 63
t-51.5 42.5t-67.5 23.5t-76 7t-76.5 -8t-68.5 -24.5t-54 -42.5t-32 -61h-40z" />
    <glyph glyph-name="uni0208" unicode="&#x208;" horiz-adv-x="591" 
d="M370 0h-135v1456h135v-1456zM133 1648l-298 285h123l242 -285h-67zM411 1648l-294 285h120l243 -285h-69z" />
    <glyph glyph-name="uni0209" unicode="&#x209;" horiz-adv-x="503" 
d="M317 0h-124v1026h124v-1026zM122 1218l-298 285h123l242 -285h-67zM400 1218l-294 285h120l243 -285h-69z" />
    <glyph glyph-name="uni020A" unicode="&#x20a;" horiz-adv-x="591" 
d="M370 0h-135v1456h135v-1456zM22 1692q5 53 26.5 92t56.5 65t82 38.5t103 12.5q116 0 186.5 -50.5t78.5 -157.5h-40q-6 37 -27 63t-51.5 42.5t-67.5 23.5t-76 7t-76.5 -8t-68.5 -24.5t-54 -42.5t-32 -61h-40z" />
    <glyph glyph-name="uni020B" unicode="&#x20b;" horiz-adv-x="503" 
d="M317 0h-124v1026h124v-1026zM-25 1262q5 53 26.5 92t56.5 65t82 38.5t103 12.5q116 0 186.5 -50.5t78.5 -157.5h-40q-6 37 -27 63t-51.5 42.5t-67.5 23.5t-76 7t-76.5 -8t-68.5 -24.5t-54 -42.5t-32 -61h-40z" />
    <glyph glyph-name="uni020C" unicode="&#x20c;" horiz-adv-x="1663" 
d="M1551 730q0 -165 -48.5 -303.5t-140.5 -238.5t-224.5 -155.5t-299.5 -55.5q-164 0 -294.5 53t-221.5 151t-139.5 236.5t-48.5 309.5q0 165 48.5 303.5t140.5 239t225 157t302 56.5q162 0 292 -53.5t221 -152t139.5 -237.5t48.5 -310zM271 725q0 -133 36.5 -248.5
t108.5 -201t178 -135t245 -49.5q141 0 247.5 49t177.5 135.5t106.5 204t35.5 255.5q0 133 -35 249t-105.5 201.5t-176.5 134.5t-248 49q-140 0 -246.5 -53t-178.5 -141.5t-108.5 -205.5t-36.5 -244zM668 1648l-298 285h123l242 -285h-67zM946 1648l-294 285h120l243 -285
h-69z" />
    <glyph glyph-name="uni020D" unicode="&#x20d;" horiz-adv-x="1238" 
d="M633 1051q128 0 224 -41.5t160.5 -114t97 -170.5t32.5 -210q0 -110 -34.5 -207.5t-100.5 -171t-163.5 -116.5t-223.5 -43q-125 0 -221 41t-161.5 113t-99 169t-33.5 209t34.5 211t101 172.5t164 116t223.5 42.5zM1017 511q0 89 -23.5 169t-71.5 140t-121.5 95.5
t-174.5 35.5q-96 0 -168 -36.5t-121 -98t-73.5 -141t-24.5 -165.5t24.5 -165t74 -139t123 -95.5t171.5 -35.5q96 0 168.5 36t120.5 96t72 139t24 165zM488 1218l-298 285h123l242 -285h-67zM766 1218l-294 285h120l243 -285h-69z" />
    <glyph glyph-name="uni020E" unicode="&#x20e;" horiz-adv-x="1663" 
d="M1551 730q0 -165 -48.5 -303.5t-140.5 -238.5t-224.5 -155.5t-299.5 -55.5q-164 0 -294.5 53t-221.5 151t-139.5 236.5t-48.5 309.5q0 165 48.5 303.5t140.5 239t225 157t302 56.5q162 0 292 -53.5t221 -152t139.5 -237.5t48.5 -310zM271 725q0 -133 36.5 -248.5
t108.5 -201t178 -135t245 -49.5q141 0 247.5 49t177.5 135.5t106.5 204t35.5 255.5q0 133 -35 249t-105.5 201.5t-176.5 134.5t-248 49q-140 0 -246.5 -53t-178.5 -141.5t-108.5 -205.5t-36.5 -244zM526 1692q5 53 26.5 92t56.5 65t82 38.5t103 12.5q116 0 186.5 -50.5
t78.5 -157.5h-40q-6 37 -27 63t-51.5 42.5t-67.5 23.5t-76 7t-76.5 -8t-68.5 -24.5t-54 -42.5t-32 -61h-40z" />
    <glyph glyph-name="uni020F" unicode="&#x20f;" horiz-adv-x="1238" 
d="M633 1051q128 0 224 -41.5t160.5 -114t97 -170.5t32.5 -210q0 -110 -34.5 -207.5t-100.5 -171t-163.5 -116.5t-223.5 -43q-125 0 -221 41t-161.5 113t-99 169t-33.5 209t34.5 211t101 172.5t164 116t223.5 42.5zM1017 511q0 89 -23.5 169t-71.5 140t-121.5 95.5
t-174.5 35.5q-96 0 -168 -36.5t-121 -98t-73.5 -141t-24.5 -165.5t24.5 -165t74 -139t123 -95.5t171.5 -35.5q96 0 168.5 36t120.5 96t72 139t24 165zM332 1262q5 53 26.5 92t56.5 65t82 38.5t103 12.5q116 0 186.5 -50.5t78.5 -157.5h-40q-6 37 -27 63t-51.5 42.5
t-67.5 23.5t-76 7t-76.5 -8t-68.5 -24.5t-54 -42.5t-32 -61h-40z" />
    <glyph glyph-name="uni0210" unicode="&#x210;" horiz-adv-x="1377" 
d="M1139 0l-152 416q-27 73 -54 121.5t-64 77.5t-88 41t-126 12h-298v-668h-130v1456h342q59 0 128.5 -2t139.5 -13t135 -33.5t115.5 -64t81 -105t30.5 -155.5q0 -73 -25 -133.5t-71 -106t-110 -76t-142 -43.5q-2 -6 -2 -8q0 -1 0.5 -1.5t0.5 -1.5q72 -14 116.5 -48.5
t79.5 -94.5t68.5 -149t83.5 -212l80 -209h-139zM361 783h293q73 0 145.5 12.5t130.5 44.5t94.5 86.5t36.5 138.5t-30 137.5t-83.5 84.5t-126.5 43t-159 12h-301v-559zM525 1648l-298 285h123l242 -285h-67zM803 1648l-294 285h120l243 -285h-69z" />
    <glyph glyph-name="uni0211" unicode="&#x211;" horiz-adv-x="737" 
d="M313 0h-124v788l-10 238h130l4 -248q16 72 46.5 123.5t69.5 84.5t88 48.5t106 16.5q29 0 50.5 -1.5t35.5 -5.5l1 -114q-9 4 -32.5 7.5t-61.5 3.5q-66 0 -121 -25.5t-94.5 -73.5t-63 -116t-24.5 -152v-574zM239 1218l-298 285h123l242 -285h-67zM517 1218l-294 285h120
l243 -285h-69z" />
    <glyph glyph-name="uni0212" unicode="&#x212;" horiz-adv-x="1377" 
d="M1139 0l-152 416q-27 73 -54 121.5t-64 77.5t-88 41t-126 12h-298v-668h-130v1456h342q59 0 128.5 -2t139.5 -13t135 -33.5t115.5 -64t81 -105t30.5 -155.5q0 -73 -25 -133.5t-71 -106t-110 -76t-142 -43.5q-2 -6 -2 -8q0 -1 0.5 -1.5t0.5 -1.5q72 -14 116.5 -48.5
t79.5 -94.5t68.5 -149t83.5 -212l80 -209h-139zM361 783h293q73 0 145.5 12.5t130.5 44.5t94.5 86.5t36.5 138.5t-30 137.5t-83.5 84.5t-126.5 43t-159 12h-301v-559zM290 1692q5 53 26.5 92t56.5 65t82 38.5t103 12.5q116 0 186.5 -50.5t78.5 -157.5h-40q-6 37 -27 63
t-51.5 42.5t-67.5 23.5t-76 7t-76.5 -8t-68.5 -24.5t-54 -42.5t-32 -61h-40z" />
    <glyph glyph-name="uni0213" unicode="&#x213;" horiz-adv-x="737" 
d="M313 0h-124v788l-10 238h130l4 -248q16 72 46.5 123.5t69.5 84.5t88 48.5t106 16.5q29 0 50.5 -1.5t35.5 -5.5l1 -114q-9 4 -32.5 7.5t-61.5 3.5q-66 0 -121 -25.5t-94.5 -73.5t-63 -116t-24.5 -152v-574zM141 1262q5 53 26.5 92t56.5 65t82 38.5t103 12.5
q116 0 186.5 -50.5t78.5 -157.5h-40q-6 37 -27 63t-51.5 42.5t-67.5 23.5t-76 7t-76.5 -8t-68.5 -24.5t-54 -42.5t-32 -61h-40z" />
    <glyph glyph-name="uni0214" unicode="&#x214;" horiz-adv-x="1532" 
d="M1212 1456h126l-5 -908q-1 -134 -36.5 -240t-106.5 -179.5t-177.5 -112.5t-248.5 -39q-137 0 -237 35t-167.5 102t-104.5 163t-46 219q-1 5 -1 8.5v8.5v19l6 924h125l-3 -913q0 -106 25.5 -189.5t79 -142t136.5 -89.5t197 -31q106 0 187 25t135 78t81.5 137t28.5 202z
M602 1648l-298 285h123l242 -285h-67zM880 1648l-294 285h120l243 -285h-69z" />
    <glyph glyph-name="uni0215" unicode="&#x215;" horiz-adv-x="1217" 
d="M925 1026h124v-789q0 -16 1 -75t4 -162h-129v203q-56 -118 -150 -172t-229 -54q-111 0 -182.5 38t-113 98t-57.5 134.5t-16 148.5v630h124v-621q3 -81 16 -142.5t47.5 -103t89.5 -63t135 -21.5q81 0 143.5 26.5t105 73t65 109.5t22.5 137v12v593zM478 1218l-298 285h123
l242 -285h-67zM756 1218l-294 285h120l243 -285h-69z" />
    <glyph glyph-name="uni0216" unicode="&#x216;" horiz-adv-x="1532" 
d="M1212 1456h126l-5 -908q-1 -134 -36.5 -240t-106.5 -179.5t-177.5 -112.5t-248.5 -39q-137 0 -237 35t-167.5 102t-104.5 163t-46 219q-1 5 -1 8.5v8.5v19l6 924h125l-3 -913q0 -106 25.5 -189.5t79 -142t136.5 -89.5t197 -31q106 0 187 25t135 78t81.5 137t28.5 202z
M476 1692q5 53 26.5 92t56.5 65t82 38.5t103 12.5q116 0 186.5 -50.5t78.5 -157.5h-40q-6 37 -27 63t-51.5 42.5t-67.5 23.5t-76 7t-76.5 -8t-68.5 -24.5t-54 -42.5t-32 -61h-40z" />
    <glyph glyph-name="uni0217" unicode="&#x217;" horiz-adv-x="1217" 
d="M925 1026h124v-789q0 -16 1 -75t4 -162h-129v203q-56 -118 -150 -172t-229 -54q-111 0 -182.5 38t-113 98t-57.5 134.5t-16 148.5v630h124v-621q3 -81 16 -142.5t47.5 -103t89.5 -63t135 -21.5q81 0 143.5 26.5t105 73t65 109.5t22.5 137v12v593zM375 1262q5 53 26.5 92
t56.5 65t82 38.5t103 12.5q116 0 186.5 -50.5t78.5 -157.5h-40q-6 37 -27 63t-51.5 42.5t-67.5 23.5t-76 7t-76.5 -8t-68.5 -24.5t-54 -42.5t-32 -61h-40z" />
    <glyph glyph-name="uni0218" unicode="&#x218;" 
d="M207 250q49 -55 98.5 -86.5t99 -47.5t98.5 -20.5t97 -4.5q86 0 158 17t123.5 50t80.5 82t29 114q0 74 -35.5 125.5t-94 89.5t-132.5 67t-152 57.5t-152 62t-132.5 80t-94 111t-35.5 156.5q0 94 44 165t117 119t165.5 72t190.5 24q48 0 99 -6.5t101 -21.5t96.5 -40.5
t85.5 -63.5l-49 -93q-69 60 -157.5 85t-177.5 25q-68 0 -135 -14t-120.5 -45t-87 -79t-33.5 -115q0 -71 35.5 -121t94 -88.5t133 -69t152.5 -61.5t152.5 -66t133 -83.5t94 -113.5t35.5 -156q0 -70 -22.5 -125.5t-62.5 -97.5t-93 -71.5t-115 -48.5t-128.5 -27.5t-132.5 -8.5
q-129 0 -239.5 48t-185.5 145zM593 -100h140l-155 -441h-91z" />
    <glyph glyph-name="uni0219" unicode="&#x219;" horiz-adv-x="1007" 
d="M800 894q-44 27 -120.5 42t-167.5 15q-53 0 -98 -11.5t-77.5 -33t-50.5 -52t-18 -69.5q0 -50 14.5 -79t42.5 -47.5t69 -30t94 -25t117 -34t138 -56.5q27 -13 56 -31.5t53 -46.5t39 -66.5t15 -90.5q0 -77 -35.5 -133.5t-93.5 -94t-132.5 -55.5t-152.5 -18
q-53 0 -104.5 5.5t-97.5 18t-84.5 32.5t-64.5 49l31 94q23 -26 58 -45t76.5 -31.5t88 -18.5t93.5 -6q63 0 116 12t91.5 35t59.5 58t21 81q0 53 -24 88t-67 59t-101 41.5t-127 36.5q-73 22 -131.5 46t-100 57t-64 78.5t-22.5 111.5q0 69 31.5 120t83.5 85t117.5 50.5
t134.5 16.5q100 0 184.5 -18t138.5 -60zM470 -100h140l-155 -441h-91z" />
    <glyph glyph-name="uni021A" unicode="&#x21a;" horiz-adv-x="1174" 
d="M530 0v1342h-477v114h1088v-114h-476v-1342h-135zM536 -100h140l-155 -441h-91z" />
    <glyph glyph-name="uni021B" unicode="&#x21b;" horiz-adv-x="729" 
d="M271 944h-207v82h207l1 288l123 34v-322h264v-82h-264v-641q0 -59 3 -103t16 -72.5t45.5 -42.5t92.5 -14q72 0 110 19v-85q-22 -15 -51.5 -21.5t-67.5 -6.5q-83 0 -136.5 18t-83.5 54.5t-41 91.5t-11 129v674zM372 -100h140l-155 -441h-91z" />
    <glyph glyph-name="circumflex" unicode="&#x2c6;" horiz-adv-x="699" 
d="M143 1214l209 296h135l208 -296h-79l-199 240l-200 -240h-74z" />
    <glyph glyph-name="caron" unicode="&#x2c7;" horiz-adv-x="699" 
d="M638 1509l-218 -295h-134l-219 295h98l181 -240l191 240h101z" />
    <glyph glyph-name="breve" unicode="&#x2d8;" horiz-adv-x="629" 
d="M587 1470q-5 -53 -26.5 -92t-56.5 -65t-82 -38.5t-103 -12.5q-116 0 -186.5 50.5t-78.5 157.5h40q6 -38 27 -63.5t51.5 -42t67.5 -23.5t76 -7t76.5 8t68.5 24.5t54 42.5t32 61h40z" />
    <glyph glyph-name="dotaccent" unicode="&#x2d9;" horiz-adv-x="524" 
d="M211 1293v128h114v-128h-114z" />
    <glyph glyph-name="ring" unicode="&#x2da;" horiz-adv-x="605" 
d="M570 1371q0 27 -12 51.5t-33 44t-49.5 31t-61.5 11.5q-29 0 -55.5 -11.5t-47 -30.5t-33 -44t-12.5 -52q0 -62 41.5 -101.5t111.5 -39.5q30 0 57 11.5t48 31t33.5 45t12.5 53.5zM226 1370q0 38 15.5 71t42 57t62 37.5t75.5 13.5t74.5 -13.5t60.5 -37.5t41 -56.5t15 -70.5
q0 -37 -15.5 -70t-42 -58t-62 -39.5t-75.5 -14.5q-39 0 -74 13.5t-61 37.5t-41 57.5t-15 72.5z" />
    <glyph glyph-name="ogonek" unicode="&#x2db;" horiz-adv-x="508" 
d="M299 -328q27 0 45.5 1t33.5 3.5t27 6t26 8.5l2 -71q-13 -5 -32 -9.5t-41 -8.5t-45.5 -6t-44.5 -2q-41 0 -77 10.5t-63 30t-42.5 48t-15.5 65.5t17.5 69.5t46 60.5t66 52t76.5 45l103 19q-47 -27 -85.5 -55t-67 -55.5t-44 -54.5t-15.5 -52t11.5 -44.5t29.5 -33t41.5 -20.5
t47.5 -7z" />
    <glyph glyph-name="tilde" unicode="&#x2dc;" horiz-adv-x="663" 
d="M688 1451h62q-4 -39 -17.5 -73.5t-36 -59.5t-53.5 -39.5t-69 -14.5q-24 0 -54 11t-64 24.5t-71 24.5t-73 11q-51 0 -81 -21.5t-35 -66.5h-58q8 82 55 132t125 50q30 0 60 -11.5t61.5 -25t65.5 -24.5t71 -11q46 0 76.5 23t35.5 71z" />
    <glyph glyph-name="hungarumlaut" unicode="&#x2dd;" horiz-adv-x="969" 
d="M479 1218l198 285h123l-254 -285h-67zM199 1218l199 285h120l-250 -285h-69z" />
    <glyph glyph-name="uni030F" unicode="&#x30f;" horiz-adv-x="969" 
d="M475 1218l-298 285h123l242 -285h-67zM753 1218l-294 285h120l243 -285h-69z" />
    <glyph glyph-name="uni0311" unicode="&#x311;" horiz-adv-x="629" 
d="M70 1262q5 53 26.5 92t56.5 65t82 38.5t103 12.5q116 0 186.5 -50.5t78.5 -157.5h-40q-6 37 -27 63t-51.5 42.5t-67.5 23.5t-76 7t-76.5 -8t-68.5 -24.5t-54 -42.5t-32 -61h-40z" />
    <glyph glyph-name="uni0326" unicode="&#x326;" horiz-adv-x="540" 
d="M234 -100h140l-155 -441h-91z" />
    <glyph glyph-name="Omega" unicode="&#x3a9;" horiz-adv-x="1603" 
d="M140 103h360q-80 50 -147 119.5t-116 155t-76 186t-27 212.5q0 154 52 278t144 212t218 135.5t274 47.5q153 0 275.5 -51.5t208.5 -141.5t132 -212.5t46 -264.5q0 -114 -32.5 -215t-85 -186.5t-119 -155t-133.5 -119.5h382v-103h-506l-1 96q79 52 145.5 121.5t115.5 153
t76.5 180t27.5 203.5q0 118 -34.5 224.5t-102 187.5t-169 129t-234.5 48q-122 0 -223 -42t-173.5 -118.5t-112.5 -184t-40 -237.5q0 -107 26 -204.5t73.5 -182.5t114 -155.5t147.5 -122.5v-96h-506z" />
    <glyph glyph-name="mu" unicode="&#x3bc;" horiz-adv-x="1217" 
d="M926 1026h120l-1 -789q0 -15 -0.5 -30t-0.5 -32q0 -44 1.5 -88.5t3.5 -86.5h-124l-1 203q-54 -118 -148.5 -172t-229.5 -54q-88 0 -150 23t-104 65l-1 -231h-117v1192h127l-4 -674q0 -140 74 -208.5t218 -68.5q81 0 143.5 26.5t105 73t65 109.5t22.5 137v12z" />
    <glyph glyph-name="pi" unicode="&#x3c0;" horiz-adv-x="1468" 
d="M271 0v907h-121v120h1081v-120h-131v-907h-117v907h-594v-907h-118z" />
    <glyph glyph-name="endash" unicode="&#x2013;" horiz-adv-x="1085" 
d="M1089 508h-1080v102h1080v-102z" />
    <glyph glyph-name="emdash" unicode="&#x2014;" horiz-adv-x="2171" 
d="M2194 508h-2192v102h2192v-102z" />
    <glyph glyph-name="quoteleft" unicode="&#x2018;" horiz-adv-x="553" 
d="M295 1060h-135l147 419h88z" />
    <glyph glyph-name="quoteright" unicode="&#x2019;" horiz-adv-x="553" 
d="M274 1479h134l-146 -419h-89z" />
    <glyph glyph-name="quotesinglbase" unicode="&#x201a;" horiz-adv-x="553" 
d="M259 170h134l-147 -417h-87z" />
    <glyph glyph-name="quotedblleft" unicode="&#x201c;" horiz-adv-x="1024" 
d="M273 1060h-136l150 419h86zM564 1060h-158l168 419h89z" />
    <glyph glyph-name="quotedblright" unicode="&#x201d;" horiz-adv-x="1024" 
d="M270 1479h135l-145 -419h-90zM544 1479h136l-147 -419h-90z" />
    <glyph glyph-name="quotedblbase" unicode="&#x201e;" horiz-adv-x="1024" 
d="M311 170h135l-150 -417h-87zM681 170h137l-148 -417h-89z" />
    <glyph glyph-name="dagger" unicode="&#x2020;" horiz-adv-x="1022" 
d="M471 968h-341v98h336v401h115v-401h338v-98h-337v-852h-111v852z" />
    <glyph glyph-name="daggerdbl" unicode="&#x2021;" horiz-adv-x="1022" 
d="M454 1020h-328v98h357v349h119l-25 -349h338v-98h-335v-474h330v-95h-358v-335h-123v335h-311v95h336v474z" />
    <glyph glyph-name="bullet" unicode="&#x2022;" horiz-adv-x="989" 
d="M830 707q0 -64 -26 -120.5t-71 -98.5t-105 -66.5t-127 -24.5q-66 0 -124.5 24t-102.5 65t-69.5 96.5t-25.5 117.5q0 64 26.5 120.5t72 98.5t105.5 66.5t127 24.5q66 0 124 -24t101.5 -65.5t69 -96.5t25.5 -117z" />
    <glyph glyph-name="ellipsis" unicode="&#x2026;" horiz-adv-x="1620" 
d="M360 -11h-172v179h173zM900 -11h-172v179h173zM1441 -11h-173v179h173v-179z" />
    <glyph glyph-name="perthousand" unicode="&#x2030;" horiz-adv-x="2386" 
d="M2010 589q-55 0 -96.5 -22t-69.5 -59t-42 -85.5t-14 -101.5q0 -56 14 -105t42.5 -85.5t71 -57.5t100.5 -21q55 0 96 21.5t69 58.5t42 85.5t14 102.5q0 56 -14 105t-42 85.5t-71 57.5t-100 21zM2009 -27q-77 0 -137.5 25t-101.5 70.5t-62.5 109t-21.5 141.5q0 76 22 140
t64 110.5t103.5 73t139.5 26.5q79 0 139 -24.5t100.5 -69.5t61 -110t20.5 -146q0 -74 -22 -137.5t-64 -110t-102.5 -72.5t-138.5 -26zM402 768q-77 0 -137 25t-101 71t-62 109.5t-21 141.5q0 76 21.5 139.5t63.5 110t103 72.5t140 26t139 -25t100 -70.5t60.5 -110
t20.5 -143.5q0 -74 -22 -137.5t-64 -110t-102.5 -72.5t-138.5 -26zM1191 -27q-77 0 -137 25t-101 71t-62 109.5t-21 141.5q0 75 21.5 139t63 110.5t103 73t141.5 26.5q78 0 137.5 -24.5t100.5 -70t62 -110.5t21 -145q0 -74 -22 -137.5t-64.5 -110t-103.5 -72.5t-139 -26z
M1194 589q-56 0 -98.5 -22t-70.5 -59t-42 -85.5t-14 -101.5q0 -56 14.5 -105t43.5 -85.5t72 -57.5t101 -21q55 0 96 21.5t68.5 58.5t41.5 85t14 102q0 57 -14.5 106.5t-43 85.5t-70.5 57t-98 21zM405 1385q-56 0 -98 -22t-70 -59t-42 -85.5t-14 -101.5q0 -57 14 -106
t42.5 -85.5t71.5 -57.5t100 -21q55 0 97 21.5t69.5 58t41.5 84.5t14 102q0 57 -14.5 106.5t-43 86t-70.5 58t-98 21.5zM272 -21l951 1473h100l-951 -1473h-100z" />
    <glyph glyph-name="guilsinglleft" unicode="&#x2039;" horiz-adv-x="642" 
d="M402 911h109l-260 -370l251 -364h-106l-265 364z" />
    <glyph glyph-name="guilsinglright" unicode="&#x203a;" horiz-adv-x="642" 
d="M250 177h-108l260 365l-254 369h109l268 -369z" />
    <glyph glyph-name="fraction" unicode="&#x2044;" horiz-adv-x="368" 
d="M701 1452l-915 -1452h-98l917 1452h96z" />
    <glyph glyph-name="foursuperior" unicode="&#x2074;" horiz-adv-x="897" 
d="M384 639v196h-392v68l370 525h108v-522h117l6 -71h-125v-41v-114v-41h-84zM382 906l-1 437q-11 -17 -20.5 -33t-20.5 -33l-264 -371h306z" />
    <glyph glyph-name="Euro" unicode="&#x20ac;" horiz-adv-x="1190" 
d="M116 642h108q-1 16 -2.5 39t-1.5 54q0 33 3 77h-124l16 107h124q20 117 66.5 217t117.5 173t167 114t215 41q189 0 304 -106l-22 -133q-44 63 -119 94t-175 31q-90 0 -161.5 -35.5t-124 -94.5t-86.5 -137.5t-49 -163.5h614l-17 -107h-612q-3 -21 -5 -47t-2 -48
q0 -31 3.5 -46t4.5 -29h594l-18 -107h-564q12 -98 40.5 -180t78.5 -140.5t123 -91t174 -32.5q171 0 303 103l-2 -125q-71 -48 -151.5 -69t-167.5 -21q-121 0 -214 40.5t-159 114t-106 176t-54 225.5h-135z" />
    <glyph glyph-name="trademark" unicode="&#x2122;" horiz-adv-x="1869" 
d="M1009 1467l261 -598l281 598h151v-756h-93v688l-315 -688h-46l-302 690v-690h-97v756h160zM696 1467l-14 -67h-251v-689h-96v689h-255v67h616z" />
    <glyph glyph-name="partialdiff" unicode="&#x2202;" horiz-adv-x="1167" 
d="M504 77q90 0 164 43.5t129.5 121.5t90 185t44.5 234q-15 49 -42 93t-66 76t-90 51t-114 19q-82 0 -153.5 -39t-124.5 -105.5t-83.5 -155t-30.5 -187.5q0 -76 19.5 -138t55.5 -106t87 -68t114 -24zM948 764q2 26 3.5 67t1.5 81q0 127 -26.5 227t-75.5 169t-119.5 105
t-157.5 36q-78 0 -145.5 -22.5t-113.5 -54.5l-7 95q57 35 132.5 60t163.5 25q109 0 197 -41t150 -125t95 -213t33 -306q0 -110 -15.5 -218.5t-47.5 -207.5t-80 -184t-112.5 -147.5t-146 -98t-179.5 -35.5q-99 0 -173 34t-123.5 93t-74 139t-24.5 173q0 124 39 231.5
t106 186.5t157.5 124t193.5 45q77 0 137 -22.5t103.5 -57t70.5 -77t38 -81.5z" />
    <glyph glyph-name="uni2206" unicode="&#x2206;" horiz-adv-x="1320" 
d="M1278 0h-1216v68l529 1377h157l530 -1377v-68zM1115 131l-374 1008l-57 178h-21l-59 -178l-376 -1008h887z" />
    <glyph glyph-name="product" unicode="&#x220f;" horiz-adv-x="1568" 
d="M272 -341v1660h-121v120h1305v-120h-131v-1660h-117v1660h-818v-1660h-118z" />
    <glyph glyph-name="summation" unicode="&#x2211;" horiz-adv-x="1264" 
d="M893 564l-656 -789h990v-116h-1156l5 68l666 822l-644 810v80h1084v-111h-899l72 -90z" />
    <glyph glyph-name="minus" unicode="&#x2212;" horiz-adv-x="1458" 
d="M1257 684h-1038v105h1038v-105z" />
    <glyph glyph-name="radical" unicode="&#x221a;" horiz-adv-x="1314" 
d="M688 -78l60 261l387 1435h77l-475 -1777h-95l-346 877l-179 -28l-6 78l256 48l229 -618z" />
    <glyph glyph-name="integral" unicode="&#x222b;" horiz-adv-x="702" 
d="M273 1160q0 81 12.5 149t44.5 118t87.5 78t142.5 28q22 0 38 -1.5t29 -3.5t25 -5.5t26 -7.5l-1 -96q-12 4 -33.5 7t-57.5 3q-60 0 -97.5 -15.5t-59 -46.5t-29 -76t-7.5 -104l-1 -1185q0 -81 -12.5 -149t-44.5 -118t-87.5 -78t-142.5 -28q-23 0 -38.5 1.5t-28 3.5t-24 5.5
t-26.5 7.5l1 96q12 -4 33 -7t57 -3q60 0 97.5 15.5t59 46.5t29 76t7.5 104z" />
    <glyph glyph-name="approxequal" unicode="&#x2248;" horiz-adv-x="1351" 
d="M1123 521l66 -15q-10 -53 -32 -96.5t-56 -74.5t-79.5 -47.5t-101.5 -16.5q-58 0 -120 24.5t-145 72.5q-54 34 -102.5 54t-100.5 20q-42 0 -74.5 -12t-57.5 -33.5t-42.5 -52t-29.5 -67.5l-69 15q25 111 97.5 173t183.5 62q71 0 129 -25.5t114 -59.5q67 -41 119 -64
t106 -23q75 0 120.5 43.5t74.5 122.5zM1120 909l66 -19q-10 -52 -32 -95t-56 -74t-79 -48t-102 -17q-59 0 -121.5 26.5t-144.5 73.5q-56 32 -104 51.5t-96 19.5q-87 0 -136.5 -43.5t-71.5 -121.5l-67 18q27 109 99.5 171.5t181.5 62.5q63 0 121.5 -24.5t124.5 -62.5
q37 -22 66.5 -37.5t56 -26t50.5 -15.5t49 -5q75 0 122 42t73 124z" />
    <glyph glyph-name="notequal" unicode="&#x2260;" horiz-adv-x="1351" 
d="M719 756h-532l14 87h559l142 280l78 -12l-133 -268h332l-15 -87h-359l-172 -333h548l-15 -86h-575l-146 -285l-76 12l138 273h-318l14 86h344z" />
    <glyph glyph-name="lessequal" unicode="&#x2264;" horiz-adv-x="1351" 
d="M1180 9h-991l14 91h977v-91zM1136 241l-919 441v65l940 466l-17 -103l-789 -389v-14l802 -366z" />
    <glyph glyph-name="greaterequal" unicode="&#x2265;" horiz-adv-x="1351" 
d="M262 100h977l14 -91h-991v91zM289 341l804 366v14l-789 389l-17 103l935 -466l5 -65l-921 -441z" />
    <glyph glyph-name="lozenge" unicode="&#x25ca;" horiz-adv-x="1248" 
d="M1133 718l-467 -766h-78l-454 765l464 769h79zM233 722l304 -523l91 -163l90 163l314 518l-311 546l-83 149l-87 -149z" />
    <glyph glyph-name="fi" unicode="&#xfb01;" horiz-adv-x="1205" 
d="M397 1026h623v-1026h-125v944h-496v-944h-127v944h-204v82h208l-2 134q0 8 -0.5 15t-0.5 15q0 81 16.5 144.5t51.5 108t89.5 67.5t130.5 23q22 0 38 -1.5t29 -3.5t24.5 -5.5t26.5 -7.5l-1 -96q-12 4 -33.5 7t-57.5 3q-60 0 -98 -15.5t-59 -46.5t-28.5 -76t-7.5 -104z
M1017 1478v-124h-115v124h115z" />
    <glyph glyph-name="fl" unicode="&#xfb02;" horiz-adv-x="1205" 
d="M399 0h-124v944h-207v82h207v164q-2 81 14.5 144.5t51.5 108t89.5 67.5t130.5 23q22 0 38 -1.5t29 -3.5t24.5 -5.5t26.5 -7.5l-1 -96q-12 4 -33.5 7t-57.5 3q-60 0 -98 -15.5t-59 -46.5t-26.5 -76t-4.5 -104v-161h255v-82h-255v-944zM1018 1508v-1508h-124v1508h124z" />
    <glyph glyph-name="periodcentered" horiz-adv-x="444" 
d="M184 523q-20 0 -39 8.5t-33.5 23.5t-23 34.5t-8.5 41.5q0 42 25.5 70t62.5 28q22 0 41.5 -9t34.5 -24t24 -35.5t9 -43.5q0 -39 -26.5 -66.5t-66.5 -27.5z" />
    </font>
</defs>
</svg>
