<?xml version="1.0" standalone="no"?>
<!DOCTYPE svg PUBLIC "-//W3C//DTD SVG 1.1//EN" "http://www.w3.org/Graphics/SVG/1.1/DTD/svg11.dtd" >
<svg>
<metadata>
Created by FontForge 20110222 at Sat Jun 15 15:11:50 2013
 By www-data
Copyright (c) 2011 by vernon adams. All rights reserved.
</metadata>
<defs>
<font id="Muli" horiz-adv-x="1190" >
  <font-face 
    font-family="Muli"
    font-weight="400"
    font-style="italic"
    font-stretch="normal"
    units-per-em="2048"
    panose-1="2 0 5 3 4 0 0 2 0 4"
    ascent="1638"
    descent="-410"
    x-height="1026"
    cap-height="1456"
    bbox="-337 -625 2299 1960"
    underline-thickness="119"
    underline-position="-119"
    slope="-12"
    unicode-range="U+000D-FB02"
  />
<missing-glyph horiz-adv-x="599" 
 />
    <glyph glyph-name=".notdef" horiz-adv-x="599" 
 />
    <glyph glyph-name=".null" horiz-adv-x="0" 
 />
    <glyph glyph-name="uni000D" unicode="&#xd;" horiz-adv-x="0" 
 />
    <glyph glyph-name="space" unicode=" " horiz-adv-x="599" 
 />
    <glyph glyph-name="exclam" unicode="!" horiz-adv-x="737" 
d="M260 183h214v-206h-214v206zM426 373h-115l-40 1078h195z" />
    <glyph glyph-name="quotedbl" unicode="&#x22;" horiz-adv-x="720" 
d="M439 989l-36 462h184l-18 -462h-130zM150 989l-36 462h183l-16 -462h-131z" />
    <glyph glyph-name="numbersign" unicode="#" horiz-adv-x="1242" 
d="M1184 1010l-14 -124h-250l-51 -275h252l-14 -126h-260l-83 -425h-145l80 425h-261l-82 -425h-146l84 425h-252l11 126h265q12 70 24.5 137.5t25.5 137.5h-261l13 124h270l79 410h146l-77 -410h261l76 410h146l-78 -410h241zM775 886h-261l-54 -275h264z" />
    <glyph glyph-name="dollar" unicode="$" 
d="M534 1293q-47 -6 -85 -26t-65.5 -50.5t-42.5 -71t-15 -86.5q0 -51 15.5 -88.5t43 -65.5t65 -49t82.5 -38zM251 223q64 -43 136.5 -68t143.5 -28l3 521q-81 36 -153 71.5t-126 80t-86 104t-32 143.5q0 79 33.5 147.5t88.5 120.5t126.5 84t148.5 38l-4 138h124l3 -136
q100 -2 188 -30.5t152 -82.5l-49 -128q-57 51 -131 74.5t-159 26.5l-2 -529q105 -41 184 -80t132.5 -85.5t80.5 -105t27 -138.5q0 -83 -34 -149t-92 -113t-135 -75t-163 -35l3 -161h-123l-4 156q-91 2 -173 26.5t-157 78.5zM654 131q50 7 95 25t78.5 46.5t53.5 67.5t20 88
q0 47 -18 83t-50.5 65t-77 53t-97.5 46z" />
    <glyph glyph-name="percent" unicode="%" horiz-adv-x="1985" 
d="M1454 622q-56 0 -96 -23t-66 -61t-38.5 -87t-12.5 -101q0 -54 12.5 -102t39 -84t66 -57t93.5 -21t94 22.5t65.5 60.5t38 86.5t12.5 101.5q0 55 -12.5 103t-38 84t-64.5 57t-93 21zM1455 735q84 0 149.5 -28.5t110.5 -79t68 -120t23 -151.5q0 -80 -25 -149.5t-71.5 -121.5
t-112.5 -82t-148 -30q-83 0 -148.5 29t-110.5 80t-69 120t-24 149q0 81 25 151t71.5 121.5t112.5 81.5t149 30zM526 1447q84 0 149.5 -28.5t110.5 -79t68 -120t23 -151.5q0 -80 -25 -149.5t-71.5 -121t-112.5 -81.5t-148 -30q-84 0 -149.5 29t-110.5 80t-68.5 120t-23.5 149
q0 81 25 150.5t71.5 121.5t112.5 81.5t149 29.5zM1344 1436h155l-905 -1441h-154zM525 1335q-55 0 -95 -22.5t-66.5 -60t-39 -86.5t-12.5 -101q0 -55 13 -103.5t39 -84.5t66 -57t94 -21t93.5 22.5t65.5 60t38.5 86t12.5 101.5q0 55 -12.5 103.5t-38.5 84.5t-65.5 57
t-92.5 21z" />
    <glyph glyph-name="ampersand" unicode="&#x26;" horiz-adv-x="1647" 
d="M115 402q0 84 32.5 150t85.5 120t121 98t140 82l-15 15q-33 33 -65.5 67t-58 71.5t-41 81t-15.5 95.5q0 72 28.5 126.5t78 91t115 55t140.5 18.5q70 0 137.5 -17t120 -52.5t85 -89t32.5 -126.5q0 -60 -25.5 -112.5t-68 -98t-98 -84.5t-115.5 -71l410 -413q34 52 62 116
t48 132.5t31 139.5t11 138q0 38 -3 60t-5 37h173q7 -94 -3.5 -193t-36.5 -195t-66.5 -185t-94.5 -164q45 -46 83.5 -79.5t79.5 -58t89 -41.5t111 -30l-132 -98q-47 7 -85.5 22.5t-75.5 40t-75 58t-84 77.5q-45 -44 -98 -83t-115.5 -68t-135 -45.5t-156.5 -16.5
q-117 0 -216.5 29t-173 84t-115 134.5t-41.5 181.5zM1058 291q-2 1 -22.5 21t-53.5 53t-74.5 74t-84.5 84l-229 227q-57 -29 -111 -62t-96 -74t-67 -92.5t-25 -115.5q0 -63 27 -116t75 -91.5t114.5 -60.5t146.5 -22q68 0 125 13.5t105.5 37t90 55.5t79.5 69zM625 918
q45 24 88.5 52t77 60t54 68.5t20.5 79.5t-17.5 74t-45.5 50.5t-63 28.5t-70 9q-41 0 -76.5 -10t-62.5 -30.5t-42.5 -51t-15.5 -70.5q0 -38 11 -72t31.5 -65.5t48.5 -61.5t62 -61z" />
    <glyph glyph-name="quotesingle" unicode="'" horiz-adv-x="554" 
d="M212 989l-36 462h184l-18 -462h-130z" />
    <glyph glyph-name="parenleft" unicode="(" horiz-adv-x="628" 
d="M433 -259q-58 89 -109 189t-89 208t-60 221t-22 228q0 120 20 232.5t56 220t87 210t114 201.5h148q-126 -201 -194 -417t-68 -444q0 -105 18.5 -215.5t53 -220t83 -214.5t108.5 -199h-146z" />
    <glyph glyph-name="parenright" unicode=")" horiz-adv-x="628" 
d="M56 -259q57 91 104.5 192.5t82 210t53.5 224.5t19 236q0 100 -17.5 208t-51 217t-82.5 216t-112 206h147q59 -92 110.5 -193.5t89 -210t59 -221.5t21.5 -228q0 -121 -20 -233.5t-56 -219t-86.5 -207.5t-111.5 -197h-149z" />
    <glyph glyph-name="asterisk" unicode="*" horiz-adv-x="1065" 
d="M581 1153l235 121l64 -125l-263 -88l201 -251l-126 -73l-158 266l-153 -258l-124 75l191 238l-273 78l21 135l284 -123q-10 75 -20.5 151.5t-20.5 151.5h149z" />
    <glyph glyph-name="plus" unicode="+" horiz-adv-x="1458" 
d="M646 624l3 423h150l-2 -423h448l1 -139h-448l-3 -423h-151l2 423h-446l-2 139h448z" />
    <glyph glyph-name="comma" unicode="," horiz-adv-x="540" 
d="M185 207h187l-163 -463h-131z" />
    <glyph glyph-name="hyphen" unicode="-" horiz-adv-x="728" 
d="M80 489l-1 137h571l1 -137h-571z" />
    <glyph glyph-name="period" unicode="." horiz-adv-x="540" 
d="M376 -11h-217v210h217v-210z" />
    <glyph glyph-name="slash" unicode="/" horiz-adv-x="717" 
d="M-47 -215l637 1666h167l-641 -1666h-163z" />
    <glyph glyph-name="zero" unicode="0" 
d="M596 1453q142 0 238.5 -56.5t155.5 -157.5t84 -240.5t25 -304.5q0 -162 -33 -294.5t-98 -226t-160.5 -145t-221.5 -51.5q-133 0 -227.5 54.5t-154.5 152.5t-88 233.5t-28 297.5q0 171 32.5 308t97 232.5t159 146.5t219.5 51zM592 1312q-83 0 -144 -43t-101.5 -120.5
t-60.5 -185t-20 -236.5q0 -70 5 -142t18.5 -139.5t37 -127t60 -104t87.5 -70t120 -25.5q82 0 142.5 42.5t100 118.5t59 181.5t19.5 231.5q0 68 -4.5 140t-17.5 141t-35.5 130.5t-58.5 107.5t-87 73t-120 27z" />
    <glyph glyph-name="one" unicode="1" 
d="M273 1269q77 27 148 63.5t138 78.5l165 27v-1295h217v-143h-608v143h219v1102q-67 -38 -134.5 -70t-144.5 -62v156z" />
    <glyph glyph-name="two" unicode="2" 
d="M1035 0h-936l-1 147q70 67 154 144t168 158.5t163 165.5t140 164.5t97.5 154.5t36.5 137q0 52 -20 95.5t-57.5 74.5t-90 48.5t-116.5 17.5q-58 0 -110.5 -16t-96.5 -45.5t-78.5 -72t-57.5 -95.5l-97 97q24 64 67.5 114.5t102.5 86t130 54t151 18.5q97 0 179 -26t142 -74
t93.5 -116.5t33.5 -153.5q0 -90 -44.5 -183t-119 -188t-173 -192t-206.5 -196q-47 -43 -91.5 -84.5t-92.5 -89.5h730v-145z" />
    <glyph glyph-name="three" unicode="3" 
d="M383 814q15 -1 32 -1h31q88 0 158.5 13.5t119.5 45.5t75.5 84t26.5 129q0 57 -21 98.5t-58.5 68.5t-89.5 40.5t-113 13.5q-106 0 -189 -44t-136 -134l-98 89q22 54 64 97t98.5 73t124.5 46t142 16q88 0 171 -23.5t147 -69.5t103 -114t39 -156q0 -66 -21 -120.5t-59 -97.5
t-91 -73.5t-118 -48.5l10 -2q70 -14 128.5 -44t100.5 -75t65.5 -103.5t23.5 -130.5q0 -96 -42.5 -173t-115.5 -130.5t-169 -82t-203 -28.5q-78 0 -146.5 15.5t-122.5 46.5t-91 77t-51 107l83 101q19 -50 52 -88t77 -64t97 -39.5t111 -13.5q72 0 134.5 19t109 54t73 86
t26.5 116q0 75 -28.5 128t-81.5 86.5t-129 48.5t-170 15q-17 0 -38.5 -0.5t-38.5 -1.5z" />
    <glyph glyph-name="four" unicode="4" horiz-adv-x="1189" 
d="M726 0v351h-701v124l665 945h208v-937h214v-132h-214v-351h-172zM726 483v809l-88 -146l-442 -663h530z" />
    <glyph glyph-name="five" unicode="5" 
d="M228 289q60 -87 142 -128.5t176 -41.5q83 0 147.5 26.5t108.5 72t66.5 106t22.5 128.5q0 64 -19.5 119.5t-57 97t-93.5 65.5t-128 24q-70 0 -126 -26t-88 -74l-176 -6v773h791v-145h-628l-14 -441q57 33 117.5 49.5t129.5 16.5q109 0 196 -34.5t147.5 -95.5t93 -144.5
t32.5 -181.5q0 -100 -36 -186t-103 -149.5t-163.5 -100t-217.5 -36.5q-60 0 -118 11.5t-110 35.5t-96 61t-77 88z" />
    <glyph glyph-name="six" unicode="6" 
d="M944 1201q-50 54 -117.5 82.5t-151.5 28.5q-69 0 -126 -23t-102 -63.5t-78 -96.5t-54.5 -121t-32 -137.5t-10.5 -146.5q27 49 65.5 85t86.5 59.5t104 34.5t117 11q103 0 187 -32t143 -92t91 -145t32 -191q0 -102 -34.5 -189t-97.5 -151t-153 -100.5t-201 -36.5
q-131 0 -228.5 51t-162.5 143.5t-97 221.5t-32 285q0 159 37.5 300t111 246.5t182 167t251.5 61.5q109 0 193 -35.5t132 -104.5zM620 778q-60 0 -112 -15.5t-94 -43.5t-73 -67t-49 -86q-1 -18 -1.5 -29t-0.5 -18v-11v-7q0 -75 20 -144t60.5 -122t101.5 -84.5t142 -31.5
q70 0 126.5 25t96.5 69.5t61.5 104.5t21.5 130t-18 130t-55.5 104.5t-94 70t-132.5 25.5z" />
    <glyph glyph-name="seven" unicode="7" horiz-adv-x="1189" 
d="M1065 1420v-91l-586 -1329h-186l580 1275h-778v145h970z" />
    <glyph glyph-name="eight" unicode="8" 
d="M587 1453q96 0 179.5 -24.5t145.5 -71t98 -114t36 -152.5q0 -127 -74 -214.5t-207 -129.5q154 -46 235 -144.5t81 -235.5q0 -94 -40.5 -167t-109 -122.5t-158 -75t-186.5 -25.5q-98 0 -187 25.5t-157.5 75t-109 122.5t-40.5 167q0 137 81 235.5t235 144.5
q-133 42 -207 129.5t-74 214.5q0 85 36 152.5t98 114t145.5 71t179.5 24.5zM587 119q69 0 127.5 17t100.5 50t65.5 81.5t23.5 112.5q0 60 -23.5 108.5t-65.5 85t-100.5 61t-127.5 38.5q-69 -14 -127.5 -38.5t-100.5 -61t-65.5 -85t-23.5 -108.5q0 -64 23.5 -112.5
t65.5 -81.5t100.5 -50t127.5 -17zM587 1317q-58 0 -110 -15t-91.5 -44.5t-62.5 -72.5t-23 -99q0 -109 74.5 -174.5t212.5 -91.5q138 26 212.5 91.5t74.5 174.5q0 56 -23 99t-62.5 72.5t-91.5 44.5t-110 15z" />
    <glyph glyph-name="nine" unicode="9" 
d="M237 234q53 -57 123 -86t157 -29q100 0 175 48t125.5 128.5t75.5 186.5t25 223v2q-57 -90 -152.5 -132t-220.5 -42q-105 0 -189.5 33.5t-144 93t-91.5 142.5t-32 182t34.5 185t98.5 149t155.5 99t204.5 36q122 0 217.5 -45.5t161 -134t99.5 -218t34 -297.5
q0 -173 -38 -316.5t-112 -247t-182 -160.5t-247 -57q-109 0 -193.5 37.5t-137.5 106.5zM572 673q60 0 112.5 16t95.5 45.5t74.5 70t48.5 89.5q-1 7 -1 17v18q0 70 -18.5 138.5t-58.5 123t-102.5 88t-149.5 33.5q-70 0 -127 -24.5t-97.5 -68t-62.5 -102.5t-22 -128
q0 -67 18.5 -125t56.5 -100.5t96 -66.5t137 -24z" />
    <glyph glyph-name="colon" unicode=":" horiz-adv-x="540" 
d="M376 841h-217v210h217v-210zM376 -11h-217v210h217v-210z" />
    <glyph glyph-name="semicolon" unicode=";" horiz-adv-x="540" 
d="M206 207h188l-163 -463h-131zM376 841h-217v210h217v-210z" />
    <glyph glyph-name="less" unicode="&#x3c;" horiz-adv-x="1458" 
d="M438 552l784 -352l1 -152l-1005 460l1 87l1007 472l1 -153z" />
    <glyph glyph-name="equal" unicode="=" horiz-adv-x="1458" 
d="M1247 420v-137h-1049v137h1049zM1246 827v-138h-1049v138h1049z" />
    <glyph glyph-name="greater" unicode="&#x3e;" horiz-adv-x="1458" 
d="M1004 555l-784 371v152l1005 -484v-89l-1010 -447v154z" />
    <glyph glyph-name="question" unicode="?" horiz-adv-x="1032" 
d="M356 368q-3 30 -5 60q-2 26 -3.5 53.5t-1.5 48.5q0 61 28.5 112t71 97t92.5 89.5t92.5 89.5t71 96.5t28.5 110.5q0 57 -24 97t-64 65.5t-91.5 37t-106.5 11.5q-69 0 -135 -17.5t-126 -51.5v146q72 35 145 50t136 15q92 0 171.5 -21.5t138 -64.5t92 -107.5t33.5 -151.5
q0 -64 -29.5 -121t-73.5 -110.5t-95 -103t-95 -97t-73.5 -94.5t-29.5 -94q0 -23 2.5 -48t5.5 -47q4 -26 9 -50h-164zM546 -11h-217v210h217v-210z" />
    <glyph glyph-name="at" unicode="@" horiz-adv-x="1895" 
d="M1225 1107h146l-57 -250q-40 -173 -64.5 -276t-23.5 -147q0 -37 18.5 -60.5t64.5 -23.5q59 0 113 37t95 98.5t65.5 142.5t24.5 168q0 123 -47.5 226t-132 177.5t-202.5 116t-259 41.5q-148 0 -273.5 -53.5t-217 -146t-143 -216.5t-51.5 -264q0 -142 49.5 -263.5
t140.5 -211t218 -140t283 -50.5q147 0 279.5 46t234.5 134l80 -70q-50 -54 -116.5 -96.5t-143.5 -72.5t-163 -46t-176 -16q-182 0 -335.5 60t-265 165.5t-174 249.5t-62.5 313q0 112 29.5 215t84 191.5t131 160.5t170 123t201 79t225.5 28q110 0 211.5 -23t189 -66
t159.5 -104t122.5 -137t78.5 -165.5t28 -189.5q0 -119 -41 -222t-107.5 -179.5t-151.5 -120.5t-172 -44q-88 0 -145 37t-72 122q-52 -64 -118.5 -95.5t-138.5 -31.5q-60 0 -117 22.5t-101 67t-71 110.5t-27 153q0 68 18.5 134t51.5 124.5t78 108t98.5 85.5t112.5 56t121 20
q78 0 138.5 -31t90.5 -85zM655 582q0 -44 11.5 -80t34 -62t55.5 -40.5t75 -14.5q66 0 123 37.5t98.5 99t65 139.5t23.5 160q0 42 -8.5 76.5t-28 59t-50 37.5t-74.5 13q-71 0 -131 -39.5t-103 -101.5t-67 -137t-24 -147z" />
    <glyph glyph-name="A" unicode="A" horiz-adv-x="1425" 
d="M199 0h-186l604 1456h185l605 -1456h-191l-163 397h-698zM410 545h584l-234 605q-8 19 -17 44.5t-17 48.5q-10 27 -19 55q-10 -32 -20 -61q-8 -25 -17.5 -49.5t-14.5 -38.5z" />
    <glyph glyph-name="B" unicode="B" horiz-adv-x="1352" 
d="M202 0v1456h290q81 0 156 -2t144 -10q76 -9 140.5 -37t111.5 -71.5t73.5 -102t26.5 -128.5q0 -60 -19.5 -114t-54.5 -97.5t-84 -75.5t-107 -49q2 0 4.5 -0.5t4.5 -0.5q72 -15 132 -45.5t103 -77t66.5 -107t23.5 -135.5q0 -80 -30.5 -153t-91.5 -128.5t-151.5 -88.5
t-210.5 -33h-527zM374 828h196q73 0 143.5 11.5t126 39.5t89.5 76t34 122q0 73 -29.5 118.5t-80.5 70.5t-120.5 33.5t-150.5 8.5h-208v-480zM374 680v-532h283q179 0 276.5 63t97.5 195q0 79 -28 132t-83 84.5t-135 44.5t-185 13h-226z" />
    <glyph glyph-name="C" unicode="C" horiz-adv-x="1399" 
d="M1190 1219q-153 115 -357 115q-92 0 -168 -24.5t-136.5 -68t-105 -102.5t-74 -128t-44 -145.5t-14.5 -153.5q0 -118 31 -224.5t95 -187t162 -128t232 -47.5q123 0 231.5 35.5t190.5 107.5l58 -141q-93 -75 -220 -112.5t-286 -37.5q-165 0 -291 58t-212 158.5t-130 234
t-44 285.5q0 103 21.5 200t63 182.5t102.5 157t139.5 122.5t173.5 79.5t206 28.5q136 0 243 -36.5t198 -117.5z" />
    <glyph glyph-name="D" unicode="D" horiz-adv-x="1546" 
d="M193 1456h315q130 0 249 -15t221.5 -49t186 -89.5t142.5 -137t91 -191t32 -250.5q0 -166 -55.5 -299.5t-161 -228t-258 -145.5t-345.5 -51h-417v1456zM365 148h261q159 0 276 42.5t194 118.5t114.5 181.5t37.5 230.5q0 164 -46 276.5t-136.5 181.5t-225 99t-311.5 30
h-164v-1160z" />
    <glyph glyph-name="E" unicode="E" horiz-adv-x="1218" 
d="M1102 0h-897v1456h867v-148h-695v-488h657v-148h-657v-524h725v-148z" />
    <glyph glyph-name="F" unicode="F" horiz-adv-x="1137" 
d="M369 0h-172v1456h843v-148h-671v-493h637v-148h-637v-667z" />
    <glyph glyph-name="G" unicode="G" horiz-adv-x="1530" 
d="M1258 1196q-37 36 -82.5 62t-97 43t-108 25t-114.5 8q-139 0 -244.5 -52t-176 -138.5t-106 -198t-35.5 -231.5q0 -131 35 -239.5t106 -186t177.5 -120.5t250.5 -43q85 0 165 14t152 43v426h-361v149h533v-676q-121 -57 -247.5 -80.5t-255.5 -23.5q-180 0 -317 52
t-229.5 147t-139.5 228.5t-47 296.5q0 107 22.5 206.5t66 186.5t107.5 158.5t146.5 123t183 79.5t218.5 28q72 0 140 -11t128 -33.5t110.5 -57t88.5 -80.5z" />
    <glyph glyph-name="H" unicode="H" horiz-adv-x="1555" 
d="M374 0h-172v1456h172v-634h802v634h171v-1456h-171v674h-802v-674z" />
    <glyph glyph-name="I" unicode="I" horiz-adv-x="591" 
d="M382 0h-172v1456h172v-1456z" />
    <glyph glyph-name="J" unicode="J" horiz-adv-x="939" 
d="M122 197q44 -34 94 -53t110 -19q66 0 114.5 27.5t80 76.5t47 115t15.5 144v968h172v-957q0 -127 -30 -224.5t-86 -163.5t-136 -100t-182 -34q-78 0 -139.5 27.5t-110.5 76.5z" />
    <glyph glyph-name="K" unicode="K" horiz-adv-x="1294" 
d="M382 0h-172v1456h172v-660l88 91l556 569h216l-689 -678l743 -778h-236l-594 634l-84 91v-725z" />
    <glyph glyph-name="L" unicode="L" horiz-adv-x="1120" 
d="M1073 0h-871v1456h172v-1308h697z" />
    <glyph glyph-name="M" unicode="M" horiz-adv-x="2002" 
d="M370 0h-170v1456h238l475 -1040l84 -204h2l85 207l478 1037h234v-1456h-168v934v317l-51 -121l-517 -1130h-126l-504 1108l-60 160v-337v-931z" />
    <glyph glyph-name="N" unicode="N" horiz-adv-x="1594" 
d="M193 0v1456h206l747 -1114l78 -127v233v1008h171v-1456h-208l-750 1113l-72 124v-190v-1047h-172z" />
    <glyph glyph-name="O" unicode="O" horiz-adv-x="1663" 
d="M1544 726q0 -165 -48.5 -302.5t-140.5 -237t-225 -154.5t-301 -55q-167 0 -299.5 53t-225 151t-141.5 237t-49 311q0 164 49 302t142 238.5t227 157t305 56.5q163 0 294 -54t223 -153t141 -238.5t49 -311.5zM298 725q0 -126 33.5 -235.5t100 -190.5t165.5 -127.5
t230 -46.5q132 0 231.5 46.5t165.5 128t99 193t33 241.5q0 127 -32.5 237t-98.5 191t-164.5 127t-230.5 46q-131 0 -230 -50t-166.5 -134t-101.5 -194.5t-34 -231.5z" />
    <glyph glyph-name="P" unicode="P" horiz-adv-x="1274" 
d="M375 0h-172v1456h341q85 0 166.5 -7.5t154.5 -26t134.5 -50t106 -80t69.5 -115.5t25 -157q0 -114 -49.5 -196t-133 -134.5t-192.5 -77.5t-228 -25h-222v-587zM375 1308v-572h261q82 0 152 16.5t120.5 51t79 87.5t28.5 127q0 87 -31.5 143.5t-88 89t-135 45t-173.5 12.5
h-213z" />
    <glyph glyph-name="Q" unicode="Q" horiz-adv-x="1664" 
d="M298 724q0 -125 33.5 -234t100 -190t165.5 -128t230 -47q132 0 231 46.5t165 128t99 193t33 241.5q0 127 -32.5 236.5t-98 190.5t-164 127t-230.5 46q-131 0 -230.5 -50t-166.5 -134t-101 -194.5t-34 -231.5zM1601 -182q-42 -5 -86 -7.5t-82 -2.5q-140 0 -235 14t-162 38
t-114.5 55.5t-92.5 66.5q-161 0 -292 54t-224 154t-143.5 241.5t-50.5 315.5q0 162 50 297.5t143.5 233t226.5 151.5t298 54q163 0 294 -54t222.5 -152.5t140.5 -235.5t49 -303q0 -132 -32.5 -254t-98 -220.5t-162.5 -167t-226 -94.5q40 -16 94 -25.5t110 -14t109.5 -5.5
t91.5 -1q37 0 82 4.5t87 11.5z" />
    <glyph glyph-name="R" unicode="R" horiz-adv-x="1377" 
d="M377 652v-652h-172v1456h356q59 0 129.5 -2t141.5 -13t137 -34.5t117.5 -65.5t82 -107.5t30.5 -159.5q0 -69 -22 -127t-63 -104t-98.5 -78t-127.5 -50h1q61 -20 100.5 -59t71.5 -100.5t63 -146t76 -195.5l87 -214h-188l-153 419q-25 68 -49.5 113t-58 71.5t-79 37.5
t-112.5 11h-270zM377 799h266q67 0 134 12t120.5 41t86.5 79t33 127q0 75 -27.5 123.5t-76.5 76.5t-115 39t-144 11h-277v-509z" />
    <glyph glyph-name="S" unicode="S" horiz-adv-x="1244" 
d="M215 271q33 -40 77.5 -67.5t94 -45t102 -25.5t102.5 -8q79 0 145 15.5t113.5 46t74 75t26.5 103.5q0 66 -35 112.5t-91.5 82.5t-129.5 64.5t-148.5 58.5t-148.5 64.5t-129.5 82t-91.5 112t-35 153.5q0 96 45 168.5t119 121t168 73.5t193 25q57 0 117 -7t115.5 -25
t103 -47.5t79.5 -74.5l-83 -112q-30 33 -68.5 55.5t-82 36t-89.5 19.5t-91 6q-61 0 -122 -12.5t-110 -40t-80 -71t-31 -105.5q0 -64 35 -110.5t92 -82.5t129.5 -66t148.5 -61t148.5 -67t129.5 -85t92 -114.5t35 -154.5q0 -71 -23 -127.5t-63 -99.5t-94 -73.5t-116.5 -49.5
t-130.5 -28t-135 -9q-73 0 -139 13t-122 37t-100.5 58t-73.5 76z" />
    <glyph glyph-name="T" unicode="T" horiz-adv-x="1174" 
d="M501 0v1308h-469v148h1113v-148h-472v-1308h-172z" />
    <glyph glyph-name="U" unicode="U" horiz-adv-x="1532" 
d="M191 1456h172v-910q0 -204 101 -312.5t299 -108.5q91 0 165.5 28.5t127 82t81 130.5t28.5 173v917h172l-1 -905q-1 -135 -37.5 -242t-109 -180.5t-181 -112.5t-252.5 -39q-156 0 -264 41t-175 115.5t-96.5 178.5t-29.5 229v915z" />
    <glyph glyph-name="V" unicode="V" horiz-adv-x="1336" 
d="M201 1456l423 -1149l46 -141l48 142l427 1148h179l-565 -1456h-189l-561 1456h192z" />
    <glyph glyph-name="W" unicode="W" horiz-adv-x="2103" 
d="M1115 1026l-63 221l-69 -221l-326 -1026h-213l-423 1456h186l310 -1107l38 -160l44 145l368 1122h181l359 -1111l46 -155l36 142l311 1124h180l-423 -1456h-212z" />
    <glyph glyph-name="X" unicode="X" horiz-adv-x="1304" 
d="M584 537l-369 -537h-204l537 741l-501 715h216l329 -497l70 -105l72 105l345 497h196l-511 -714l521 -742h-213l-362 538l-64 92z" />
    <glyph glyph-name="Y" unicode="Y" horiz-adv-x="1266" 
d="M543 0v582l-533 874h191l431 -729l435 729h191l-543 -871v-585h-172z" />
    <glyph glyph-name="Z" unicode="Z" horiz-adv-x="1222" 
d="M1146 0h-1088v92l864 1216h-832v148h1064v-88l-868 -1220h860v-148z" />
    <glyph glyph-name="bracketleft" unicode="[" horiz-adv-x="628" 
d="M548 -259h-357v1710h356v-122h-193v-1466h194v-122z" />
    <glyph glyph-name="backslash" unicode="\" horiz-adv-x="706" 
d="M617 -119l-687 1570h168l685 -1570h-166z" />
    <glyph glyph-name="bracketright" unicode="]" horiz-adv-x="628" 
d="M78 1451h364v-1710h-355v122h191v1466h-190z" />
    <glyph glyph-name="asciicircum" unicode="^" horiz-adv-x="1457" 
d="M184 550l481 882h101l489 -882h-155l-343 625l-43 85l-39 -84l-335 -626h-156z" />
    <glyph glyph-name="underscore" unicode="_" horiz-adv-x="998" 
d="M998 -273h-1002l-1 128h1002z" />
    <glyph glyph-name="grave" unicode="`" horiz-adv-x="593" 
d="M1 1492h214l247 -320h-129z" />
    <glyph glyph-name="a" unicode="a" horiz-adv-x="1244" 
d="M582 1051q63 0 115 -11.5t96 -32.5t81 -52t69 -70l6 141h163l-4 -253v-773h-165l2 144q-24 -32 -60.5 -62.5t-82.5 -53.5t-101.5 -37t-116.5 -14q-86 0 -156 22.5t-125 62t-95.5 92.5t-66.5 114t-39 126.5t-13 129.5q0 99 30.5 194t92 169t154 119t216.5 45zM601 109
q70 0 131.5 28.5t108 84t74 138t28.5 190.5q0 81 -24.5 148t-69.5 116t-109.5 76t-144.5 27q-61 0 -110 -16.5t-87 -45.5t-66 -68t-46 -83.5t-26.5 -92.5t-8.5 -95q0 -46 6.5 -94.5t21.5 -93.5t41 -85t64.5 -69.5t92 -47t124.5 -17.5z" />
    <glyph glyph-name="b" unicode="b" horiz-adv-x="1239" 
d="M318 0h-168q1 68 3 123q1 24 1.5 47.5t1 43.5t1 35t0.5 21v1222h165v-611q63 87 158.5 128.5t207.5 41.5q119 0 204 -43t139 -115t79.5 -167.5t25.5 -200.5q0 -112 -29.5 -211.5t-88 -174.5t-146.5 -118.5t-204 -43.5q-109 0 -196 40.5t-150 119.5zM969 550q0 76 -22 143
t-63.5 116.5t-100.5 78.5t-133 29q-81 0 -142.5 -32.5t-103 -88t-62 -128.5t-20.5 -153q0 -87 16.5 -157t55 -119.5t100.5 -76.5t153 -27q90 0 152 35.5t99.5 93.5t54 132.5t16.5 153.5z" />
    <glyph glyph-name="c" unicode="c" horiz-adv-x="1046" 
d="M881 801q-48 60 -117 88t-147 28q-83 0 -148 -32t-110.5 -87.5t-69.5 -130t-24 -159.5q0 -84 21 -157t64 -127t109 -84.5t156 -30.5q169 0 303 116l46 -138q-73 -58 -163 -84t-199 -26q-127 0 -222.5 41.5t-159.5 113t-96 167.5t-32 204q0 112 34 212t99 174.5t160 118
t217 43.5q121 0 212 -38t142 -105z" />
    <glyph glyph-name="d" unicode="d" horiz-adv-x="1240" 
d="M915 0l-4 147q-65 -92 -150.5 -131t-203.5 -39q-119 0 -206.5 41.5t-144.5 113.5t-85 168.5t-28 205.5q0 108 29.5 206.5t89 174t148 120t205.5 44.5q111 0 199.5 -42t146.5 -121v604h165v-1236q1 -60 2.5 -129t3.5 -127h-167zM583 109q81 0 142.5 31.5t103 89
t62.5 138.5t21 180q0 83 -22.5 151t-64.5 116.5t-101 75t-132 26.5q-85 0 -146.5 -33t-101.5 -89t-59 -130.5t-19 -157.5q0 -78 16.5 -150t54 -127t98 -88t148.5 -33z" />
    <glyph glyph-name="e" unicode="e" horiz-adv-x="1173" 
d="M906 609l-1 14q-5 65 -25.5 119t-56.5 93t-87.5 60.5t-116.5 21.5q-70 0 -126 -24.5t-96.5 -66.5t-65.5 -98t-34 -119h609zM1039 115q-83 -72 -184 -105t-229 -33q-121 0 -216 39.5t-160.5 110t-100 168.5t-34.5 215q0 111 34 209t99 172t158.5 117t213.5 43
q118 0 205 -38.5t143 -106t83.5 -160.5t27.5 -202q0 -11 -0.5 -25.5t-1.5 -26.5h-787l3 -45q6 -75 30.5 -137t67.5 -107t104.5 -69.5t140.5 -24.5q106 0 194 37t158 106z" />
    <glyph glyph-name="f" unicode="f" horiz-adv-x="702" 
d="M411 0h-165v919h-200l-1 107h201l2 112q1 81 16 150t49 119t90.5 78.5t141.5 28.5q21 0 38 -1.5t32.5 -4.5t31.5 -7t34 -8l2 -129q-20 8 -50.5 11.5t-59.5 3.5q-51 0 -82.5 -14t-48.5 -41.5t-23.5 -68t-6.5 -93.5l-1 -136h247l1 -107h-248v-919z" />
    <glyph glyph-name="g" unicode="g" horiz-adv-x="1241" 
d="M201 -187q79 -49 166 -72t171 -23q88 0 157.5 19.5t117.5 60t73.5 103t25.5 148.5v127q-60 -88 -151.5 -132t-200.5 -44q-111 0 -198 37t-147 104t-92 161t-32 209q0 109 30 207.5t90 172t150.5 117t210.5 43.5q117 0 198.5 -42.5t141.5 -123.5q0 17 1 41.5t2 46.5
q1 26 3 53h165q-2 -48 -3 -95q-2 -40 -2.5 -83t-0.5 -75v-626q0 -68 -8 -136.5t-29 -131.5t-58 -118t-95.5 -95.5t-141.5 -64t-195 -23.5q-100 0 -192.5 20t-175.5 62zM912 550q0 76 -22 143t-63.5 116.5t-100.5 78.5t-133 29q-81 0 -142.5 -32.5t-103 -88t-62 -128.5
t-20.5 -153q0 -87 16.5 -157t55 -119.5t100.5 -76.5t153 -27q90 0 152 35.5t99.5 93.5t54 132.5t16.5 153.5z" />
    <glyph glyph-name="h" unicode="h" horiz-adv-x="1217" 
d="M334 1492v-602q63 85 147 123t198 38q112 0 184.5 -36.5t115 -95.5t59 -133t16.5 -150v-636h-165v626q0 64 -12.5 117.5t-42 92t-79 60t-122.5 21.5q-71 0 -126.5 -26.5t-93.5 -72t-58.5 -106t-20.5 -127.5v-585h-165v1492h165z" />
    <glyph glyph-name="i" unicode="i" horiz-adv-x="503" 
d="M328 1462v-155h-153v155h153zM167 1026h165v-1026h-165v1026z" />
    <glyph glyph-name="j" unicode="j" horiz-adv-x="503" 
d="M327 1462v-155h-153v155h153zM-102 -273q27 -5 47.5 -7.5t36.5 -2.5q97 0 145 75.5t48 238.5v995h165v-920q1 -56 -2.5 -117.5t-14.5 -121t-32 -113.5t-56.5 -94.5t-88 -64.5t-125.5 -24q-58 0 -122 13z" />
    <glyph glyph-name="k" unicode="k" horiz-adv-x="1082" 
d="M343 1492v-905l466 439h225l-530 -484q141 -135 284 -271t284 -271h-219l-510 501v-501h-165v1492h165z" />
    <glyph glyph-name="l" unicode="l" horiz-adv-x="503" 
d="M333 1492v-1492h-165v1492h165z" />
    <glyph glyph-name="m" unicode="m" horiz-adv-x="1901" 
d="M330 1026l4 -138q60 84 142.5 123.5t188.5 39.5q58 0 109.5 -14.5t94 -40.5t74.5 -63.5t51 -83.5q58 105 149 153.5t223 48.5q109 0 180 -35.5t112.5 -93.5t58 -132.5t16.5 -153.5v-636h-165v558q0 64 -7.5 128t-33 115.5t-75.5 83.5t-135 32q-67 0 -119.5 -27.5
t-89 -73.5t-55.5 -105.5t-19 -123.5v-587h-165v635q0 58 -14 109.5t-44.5 89.5t-78.5 60.5t-116 22.5t-120.5 -26.5t-88.5 -71.5t-54.5 -105t-18.5 -127v-587h-165v761q0 66 -1.5 134t-4.5 131h167z" />
    <glyph glyph-name="n" unicode="n" horiz-adv-x="1217" 
d="M333 0h-165v779q0 46 -1 90.5t-2 79.5q-2 40 -3 77h167l4 -142q60 85 144.5 126t199.5 41q112 0 185 -37t115.5 -103.5t59 -158.5t16.5 -202v-550h-165v531q0 87 -7.5 158.5t-32 122t-72.5 78t-129 27.5q-75 0 -133 -29t-98 -70t-61.5 -86.5t-21.5 -79.5v-652z" />
    <glyph glyph-name="o" unicode="o" horiz-adv-x="1238" 
d="M620 1051q129 0 226.5 -42t162.5 -115t98 -171t33 -210q0 -108 -34.5 -205.5t-101 -171t-164.5 -116.5t-224 -43q-128 0 -226 42t-164.5 114t-101 169.5t-34.5 208.5t35 209.5t102.5 172t166 116t226.5 42.5zM966 511q0 82 -21 156t-64 129.5t-109 88t-156 32.5
q-87 0 -153 -33.5t-110.5 -90t-67 -130.5t-22.5 -154t22.5 -152t67 -127.5t111.5 -88t156 -32.5q88 0 153 33t108 88.5t64 128t21 152.5z" />
    <glyph glyph-name="p" unicode="p" horiz-adv-x="1239" 
d="M323 -427h-164v1185q0 21 -0.5 51.5t-1.5 66.5t-2.5 74.5t-3.5 75.5h167l5 -146q63 85 151.5 128t193.5 43q121 0 209.5 -42t146.5 -113.5t86.5 -166.5t28.5 -202q0 -108 -29.5 -207.5t-88 -175.5t-147 -121.5t-206.5 -45.5q-216 0 -345 158v-562zM323 494
q0 -83 21 -153.5t61.5 -122t100.5 -80.5t138 -29q84 0 144.5 34t99 91t57 131.5t18.5 155.5q0 76 -16 147.5t-52.5 127t-96.5 88.5t-148 33q-92 0 -154.5 -35t-101 -93.5t-55 -135t-16.5 -159.5z" />
    <glyph glyph-name="q" unicode="q" horiz-adv-x="1240" 
d="M913 148q-66 -88 -159.5 -129.5t-208.5 -41.5q-112 0 -196.5 41t-141.5 112.5t-85.5 168t-28.5 207.5q0 109 30 207.5t89 173.5t148 119.5t207 44.5q112 0 200.5 -40t145.5 -113l5 128h167q-4 -58 -5.5 -116t-1.5 -97v-1239h-165v574zM913 543q0 82 -21.5 151t-62 118.5
t-100.5 77t-136 27.5q-84 0 -146 -32.5t-102 -88t-59.5 -130.5t-19.5 -159q0 -80 18 -152.5t56 -127t98 -86.5t144 -32q96 0 159.5 37.5t102 99t54 139t15.5 158.5z" />
    <glyph glyph-name="r" unicode="r" horiz-adv-x="737" 
d="M332 0h-165v779q0 63 -2 126t-4 121h165l6 -155q42 85 114 132t160 47q58 0 108 -12l2 -155q-21 11 -51 17.5t-64 6.5q-60 0 -110 -23.5t-85 -67.5t-54.5 -107t-19.5 -141v-568z" />
    <glyph glyph-name="s" unicode="s" horiz-adv-x="1007" 
d="M790 847q-54 37 -130 53.5t-158 16.5q-46 0 -85 -10t-67.5 -28.5t-45 -45t-16.5 -59.5q0 -35 17 -60t46 -43.5t68 -33t83 -27.5q40 -12 85.5 -25t90.5 -30.5t86 -41t72.5 -55.5t50 -75t18.5 -99q0 -78 -36 -135.5t-95 -95.5t-135 -57t-156 -19q-53 0 -105 6t-99.5 20
t-88 36t-69.5 55l44 135q27 -32 63 -55t77.5 -37.5t85.5 -21t86 -6.5q56 0 103 10.5t81.5 31t54 51t19.5 70.5q0 46 -22 74.5t-61 49t-93 36t-117 35.5q-75 24 -135.5 50.5t-102.5 61.5t-64.5 81.5t-22.5 110.5q0 71 32.5 124t85.5 87.5t120.5 51.5t137.5 17
q103 0 190.5 -19.5t148.5 -67.5z" />
    <glyph glyph-name="t" unicode="t" horiz-adv-x="729" 
d="M243 919h-203v107h203l5 272l160 47v-319h256v-107h-256v-613q0 -34 2 -69.5t13.5 -65t35.5 -48t68 -18.5q32 0 67 8.5t77 23.5l-1 -123q-35 -20 -76 -28.5t-93 -8.5q-84 0 -134.5 28.5t-78 76.5t-36.5 112t-9 135v590z" />
    <glyph glyph-name="u" unicode="u" horiz-adv-x="1217" 
d="M878 1026h165v-780q0 -66 1.5 -124.5t6.5 -121.5h-170l-3 135q-116 -158 -338 -158q-76 0 -134 17.5t-100.5 47.5t-71 71t-45.5 88t-24.5 97.5t-7.5 100.5v627h165v-627q-1 -143 61 -216.5t195 -73.5q72 0 127.5 26t94 71t58.5 104.5t20 125.5v590z" />
    <glyph glyph-name="v" unicode="v" horiz-adv-x="1063" 
d="M14 1026h182l281 -690q7 -17 17 -45.5t19 -57.5q11 -33 22 -70q10 36 21 69q9 28 18 57t17 47l276 690h177l-433 -1026h-168z" />
    <glyph glyph-name="w" unicode="w" horiz-adv-x="1695" 
d="M201 1026l249 -742q4 -12 8.5 -28.5t9.5 -32.5q5 -18 11 -37q6 16 11 33q5 14 10 29.5t10 27.5l265 750h166l248 -740q4 -12 8.5 -28.5t9.5 -31.5q5 -18 11 -37q7 18 13 36l10.5 31.5t10.5 30.5l240 739h169l-368 -1026h-160l-281 831l-300 -831h-162l-365 1026h176z" />
    <glyph glyph-name="x" unicode="x" horiz-adv-x="1043" 
d="M420 514l-381 512h203l284 -412l293 412h179l-378 -508l391 -518h-201l-299 418l-301 -418h-190z" />
    <glyph glyph-name="y" unicode="y" horiz-adv-x="1069" 
d="M17 1026h181l332 -855l341 855h175l-454 -1098q-27 -66 -65 -125t-87 -105.5t-108.5 -79t-130.5 -45.5l-92 113q84 22 139 54t90 68t54.5 74.5t32.5 74.5l17 49z" />
    <glyph glyph-name="z" unicode="z" horiz-adv-x="958" 
d="M58 89l600 802h-574v135h797v-87l-598 -805h613l2 -134h-840v89z" />
    <glyph glyph-name="braceleft" unicode="{" horiz-adv-x="627" 
d="M566 -259q-70 3 -129 18.5t-102.5 47.5t-67.5 82t-24 122l1 263q0 46 -3 90.5t-18 80t-47 59.5t-90 30l-1 122q44 4 75 22.5t50 48.5t28 71.5t9 91.5q-2 63 -2 126.5t-2 126.5q0 73 17 130t55 96.5t100 60.5t151 21v-126q-39 -1 -68.5 -9.5t-49 -28t-29.5 -51t-10 -79.5
l-1 -289q0 -59 -14 -104.5t-34.5 -79t-45 -55.5t-46.5 -34q43 -20 69.5 -51.5t41.5 -69t20.5 -76.5t5.5 -73q0 -49 -1 -108t-1 -110q0 -70 8 -116.5t26.5 -74t50 -38.5t78.5 -11v-126z" />
    <glyph glyph-name="bar" unicode="|" horiz-adv-x="500" 
d="M168 -491v2036h157v-2036h-157z" />
    <glyph glyph-name="braceright" unicode="}" horiz-adv-x="627" 
d="M66 -133q47 0 78.5 11t50 38.5t26.5 74t8 116.5q0 51 -1 110t-1 108q0 34 5.5 73t20.5 76.5t41.5 69t69.5 51.5q-22 12 -46.5 34t-45 55.5t-34.5 79t-14 104.5l-1 289q0 48 -10 79.5t-29.5 51t-49 28t-68.5 9.5v126q89 0 150.5 -21t100 -60.5t55.5 -96.5t17 -130
q-2 -63 -2 -126.5t-2 -126.5q0 -50 9 -91.5t28 -71.5t50 -48.5t75 -22.5l-1 -122q-58 -6 -90 -30t-47 -59.5t-18 -80t-3 -90.5l1 -263q0 -72 -24 -122t-67.5 -82t-102.5 -47.5t-129 -18.5v126z" />
    <glyph glyph-name="asciitilde" unicode="~" horiz-adv-x="1458" 
d="M491 705q38 0 80.5 -12t86.5 -29.5t87 -38.5t82.5 -38.5t72.5 -29.5t57 -12q33 0 61 15t50.5 40t38.5 57t24 66l125 -39q-14 -60 -40 -110t-64 -86.5t-87.5 -57t-108.5 -20.5q-30 0 -67.5 12t-78 30t-83.5 38.5t-84 38.5t-79.5 30t-69.5 12q-39 0 -70 -16t-55 -42
t-40.5 -59.5t-24.5 -68.5l-115 55q11 52 36 99.5t63 84.5t89 59t114 22z" />
    <glyph glyph-name="nonbreakingspace" unicode="&#xa0;" horiz-adv-x="561" 
 />
    <glyph glyph-name="exclamdown" unicode="&#xa1;" horiz-adv-x="737" 
d="M260 1090h214v-206h-214v206zM466 -384h-195l40 1078h115z" />
    <glyph glyph-name="cent" unicode="&#xa2;" horiz-adv-x="1189" 
d="M959 801q-36 45 -85.5 72t-106.5 38l-50 -802q154 7 279 116l46 -138q-69 -54 -151 -80t-182 -29l-14 -233h-129l14 240q-102 15 -179 61.5t-128 115.5t-77 156.5t-26 184.5q0 108 31.5 205t92 170.5t149.5 119.5t203 52l13 211h130l-14 -217q87 -13 152.5 -48t106.5 -88
zM343 508q0 -71 15 -134.5t45 -114t76.5 -86t109.5 -51.5l48 790q-69 -11 -124 -46.5t-92.5 -89.5t-57.5 -122.5t-20 -145.5z" />
    <glyph glyph-name="sterling" unicode="&#xa3;" horiz-adv-x="1189" 
d="M1010 1237q-53 33 -123 51.5t-151 18.5q-76 0 -128 -26t-84.5 -73t-46.5 -113.5t-14 -147.5l3 -115h330l2 -142h-330q0 -77 -1.5 -161.5t-10.5 -160.5t-29 -136.5t-57 -90.5h709l2 -141h-966l-1 138q34 20 67 44t59 58.5t41.5 83t15.5 116.5v250h-181l-2 142h182
q-3 78 0.5 153.5t19 144t45.5 127t79.5 101t121 66.5t171.5 24q106 0 189 -23.5t140 -67.5z" />
    <glyph glyph-name="currency" unicode="&#xa4;" horiz-adv-x="1246" 
d="M587 1051q61 0 124 -17l114 267l41 -16l-115 -267q98 -46 144 -132t46 -198q0 -54 -11.5 -105.5t-33 -97.5t-54 -84t-74.5 -65l138 -280l-35 -16l-137 276q-43 -20 -89 -31t-100 -11q-66 0 -109 13l-107 -247l-37 16l105 245q-101 40 -154 129t-53 205q0 60 13 116
t38 104.5t62.5 87t87.5 63.5l-139 279l41 16l137 -278q66 28 157 28zM847 660v23q0 61 -16 114.5t-49 94t-83.5 64t-120.5 23.5q-72 0 -127 -28.5t-92.5 -76t-56.5 -108.5t-19 -127q0 -60 17 -113t51 -93.5t84.5 -64t118.5 -23.5q70 0 123 26t90 69.5t57 100.5t23 119z" />
    <glyph glyph-name="yen" unicode="&#xa5;" horiz-adv-x="1189" 
d="M680 0h-172v283h-399l-11 140h408v151h-403v142h368l-445 704h205l289 -483l81 -141l85 140l287 484h186l-455 -704h364v-142h-391v-151h394v-140h-391v-283z" />
    <glyph glyph-name="brokenbar" unicode="&#xa6;" horiz-adv-x="500" 
d="M168 -491v884h157v-884h-157zM168 677v868h157v-868h-157z" />
    <glyph glyph-name="section" unicode="&#xa7;" horiz-adv-x="1097" 
d="M834 1304q-24 11 -53 20.5t-59.5 16.5t-60 11t-53.5 4q-46 0 -85 -7.5t-68 -23.5t-45.5 -42t-16.5 -62q0 -30 10.5 -54.5t35.5 -48t67 -46.5t105 -50q60 -26 114.5 -53.5t95.5 -61.5t65.5 -75.5t24.5 -94.5q0 -42 -15.5 -79t-41 -69t-59.5 -59.5t-70 -49.5q36 -18 66 -40
t51.5 -49t33.5 -61.5t12 -77.5q0 -72 -33.5 -128t-89.5 -94.5t-129.5 -58t-153.5 -19.5q-69 0 -138 13t-132 39l-2 149q74 -34 140.5 -49t126.5 -15q56 0 100.5 12t75 32.5t46.5 48.5t16 61t-14 56.5t-41 42.5t-66 37t-89 39l-84 36q-108 46 -172 113t-64 162
q0 43 15.5 79.5t41.5 67.5t60 55.5t72 43.5q-36 22 -64.5 46.5t-48 53.5t-30 63.5t-10.5 78.5q0 69 30 121t82 86.5t121.5 51.5t148.5 17q64 0 117 -11.5t112 -29.5zM591 547q24 15 49.5 33.5t46 40t33.5 47t13 55.5q0 32 -13.5 55.5t-37 42t-55.5 33.5t-69 31l-23 9
q-10 4 -20.5 8.5t-19.5 9.5q-26 -14 -49.5 -31.5t-42.5 -38.5t-30 -46t-11 -55q0 -37 16.5 -64t47 -49t72.5 -41t93 -40z" />
    <glyph glyph-name="dieresis" unicode="&#xa8;" horiz-adv-x="743" 
d="M285 1246h-163v163h164zM618 1246h-164v163h164v-163z" />
    <glyph glyph-name="copyright" unicode="&#xa9;" horiz-adv-x="1829" 
d="M1249 339q-129 -90 -309 -90q-105 0 -193.5 37.5t-152 102.5t-99 152.5t-35.5 187.5q0 104 35 192t99.5 151.5t155 99.5t201.5 36q172 0 294 -103l-31 -120q-110 95 -270 95q-77 0 -138 -27t-104 -74t-66 -110.5t-23 -135.5q0 -74 23 -138t68 -112t112 -75.5t156 -27.5
q66 0 126.5 19t111.5 61zM230 727q0 -91 23.5 -173.5t67.5 -154t105.5 -129.5t137.5 -99t164 -63.5t185 -22.5q144 0 267.5 49.5t214.5 135.5t143 202.5t52 251.5q0 91 -23.5 173.5t-67.5 154t-105.5 129.5t-137 99t-163.5 63.5t-184 22.5q-143 0 -267 -49t-215.5 -135
t-144 -203t-52.5 -252zM914 -32q-112 0 -216 27.5t-194 77t-164 119t-126.5 153.5t-81.5 180.5t-29 200.5t29 200t82 180t127 153.5t163.5 119t191.5 77t212 27.5q112 0 215.5 -27.5t193 -77.5t163.5 -119.5t126.5 -154t81.5 -180.5t29 -199q0 -104 -29 -200t-81.5 -180
t-126 -153.5t-162.5 -119t-191.5 -77t-212.5 -27.5z" />
    <glyph glyph-name="ordfeminine" unicode="&#xaa;" horiz-adv-x="745" 
d="M317 768q-54 0 -100 14.5t-79.5 41.5t-52.5 65.5t-19 85.5q0 43 18 79.5t50.5 64t77 46.5t97.5 27q57 9 115 10.5t112 8.5v8q0 43 -7.5 72t-25 46t-45.5 24.5t-70 7.5q-30 0 -60 -4t-57 -14.5t-50.5 -29t-42.5 -46.5l-67 75q40 68 114.5 97.5t168.5 29.5q129 0 202 -59
t73 -174v-9l-2 -321q-1 -11 0 -31.5t3 -42.5l4 -54h-131l-6 74q-34 -42 -89.5 -67t-130.5 -25zM338 871q51 0 88.5 17.5t63 47.5t38.5 68.5t15 80.5l-4 25q-35 -7 -73.5 -10.5t-76 -7.5t-71.5 -10.5t-60 -19t-41 -33t-15 -52.5q0 -56 38 -81t98 -25z" />
    <glyph glyph-name="guillemotleft" unicode="&#xab;" horiz-adv-x="1156" 
d="M521 914h160l-265 -373l256 -370h-157l-269 370zM890 914h159l-263 -373l256 -370h-157l-269 370z" />
    <glyph glyph-name="logicalnot" unicode="&#xac;" horiz-adv-x="1458" 
d="M1098 238v421h-898v139h1048v-560h-150z" />
    <glyph glyph-name="registered" unicode="&#xae;" horiz-adv-x="1829" 
d="M745 664v-391h-148v919h273q219 0 325 -66.5t106 -190.5q0 -46 -15.5 -88t-47.5 -76t-82.5 -57.5t-119.5 -32.5q28 -26 56.5 -61.5t58 -77.5t59 -89t59.5 -96l51 -84h-168l-123 212q-38 66 -74.5 111t-72.5 68h-137zM743 783h125q64 0 115.5 4t87.5 18.5t55.5 41.5
t19.5 73q0 50 -15.5 80t-49.5 46t-88.5 21t-132.5 5h-118zM913 85q96 0 183.5 22.5t162.5 63.5t136.5 99t104.5 129t66.5 153t23.5 172q0 91 -23.5 173.5t-67.5 154t-105.5 129.5t-137 99t-163.5 63.5t-184 22.5q-143 0 -267 -49t-215.5 -135.5t-144 -203t-52.5 -251.5
q0 -91 23.5 -173.5t67.5 -154t105.5 -129.5t137.5 -99t164 -63.5t185 -22.5zM914 -32q-112 0 -216 27.5t-194 77t-164 119t-126.5 153.5t-81.5 180.5t-29 200.5t29 200t82 180t127 153.5t163.5 119t191.5 77t212 27.5q112 0 215.5 -27.5t193 -77.5t163.5 -119.5t126.5 -154
t81.5 -180.5t29 -199q0 -104 -29 -200t-81.5 -180t-126 -153.5t-162.5 -119t-191.5 -77t-212.5 -27.5z" />
    <glyph glyph-name="uni00AF" unicode="&#xaf;" horiz-adv-x="850" 
d="M853 1380h-856v130h856v-130z" />
    <glyph glyph-name="degree" unicode="&#xb0;" horiz-adv-x="844" 
d="M414 1328q-39 0 -74.5 -13.5t-62 -37t-42 -56t-15.5 -70.5t15 -71t41.5 -57t61.5 -38t76 -14q40 0 75.5 14t62 38t41.5 57t15 71t-15.5 70.5t-42 56t-62 37t-74.5 13.5zM414 855q-65 0 -122.5 23.5t-101.5 63.5t-69.5 93.5t-25.5 114.5t25.5 114.5t69 93.5t101.5 63
t123 23t123 -23t101.5 -63t69 -93.5t25.5 -114.5t-25.5 -114.5t-69.5 -93.5t-102 -63.5t-122 -23.5z" />
    <glyph glyph-name="plusminus" unicode="&#xb1;" horiz-adv-x="1458" 
d="M200 0v138h1049v-138h-1049zM645 733v374h149v-374h451v-138h-447v-372h-151v372h-459v138h457z" />
    <glyph glyph-name="twosuperior" unicode="&#xb2;" 
d="M283 604v111l95 87q55 51 112.5 106t104.5 108.5t76.5 103t29.5 91.5q0 51 -37 81.5t-103 30.5q-63 0 -109.5 -35t-75.5 -96l-85 78q35 81 107.5 125.5t168.5 44.5q56 0 104 -16t83.5 -45.5t55.5 -71.5t20 -94q0 -65 -28.5 -125t-77.5 -119.5t-116 -120t-143 -126.5h364
v-118h-546z" />
    <glyph glyph-name="threesuperior" unicode="&#xb3;" 
d="M235 1340q46 45 113 73t139 28q52 0 101.5 -15t87 -44t60.5 -71.5t23 -97.5q0 -59 -27.5 -106t-79.5 -75q60 -27 94 -76.5t34 -121.5q0 -57 -24 -103t-65 -78.5t-95.5 -49.5t-114.5 -17q-72 0 -135 24.5t-111 72.5l60 96q84 -78 181 -78q36 0 68 9t55.5 26.5t37.5 43
t14 57.5q0 37 -15 62.5t-43 41.5t-68 23t-89 7q-4 0 -8 -0.5t-7 -0.5h-41v119h49q43 0 79 6t62.5 20.5t41 37.5t14.5 57q0 29 -10.5 50.5t-29.5 35t-44.5 20t-56.5 6.5q-54 0 -101.5 -21.5t-90.5 -56.5z" />
    <glyph glyph-name="acute" unicode="&#xb4;" horiz-adv-x="607" 
d="M401 1492h212l-308 -320h-130z" />
    <glyph glyph-name="mu" unicode="&#xb5;" horiz-adv-x="1217" 
d="M157 1026h165v-627q0 -143 61.5 -216.5t194.5 -73.5q72 0 127.5 26t94 71t58.5 104.5t20 125.5v590h165v-780q0 -66 1.5 -124.5t6.5 -121.5h-170l-3 135q-116 -158 -338 -158q-69 0 -122.5 14.5t-95.5 39.5v-233h-165v1228z" />
    <glyph glyph-name="mu" unicode="&#x3bc;" horiz-adv-x="1217" 
d="M157 1026h165v-627q0 -143 61.5 -216.5t194.5 -73.5q72 0 127.5 26t94 71t58.5 104.5t20 125.5v590h165v-780q0 -66 1.5 -124.5t6.5 -121.5h-170l-3 135q-116 -158 -338 -158q-69 0 -122.5 14.5t-95.5 39.5v-233h-165v1228z" />
    <glyph glyph-name="paragraph" unicode="&#xb6;" horiz-adv-x="1214" 
d="M442 -148v934q-68 1 -129 26t-106.5 70t-72.5 108t-27 140q0 94 41.5 156t112.5 98.5t164.5 51.5t197.5 15h386v-124h-87v-1475h-129v1475h-208v-1475h-143z" />
    <glyph glyph-name="glyph120" unicode="&#xb7;" horiz-adv-x="444" 
d="M293 513h-217v210h217v-210z" />
    <glyph glyph-name="cedilla" unicode="&#xb8;" horiz-adv-x="529" 
d="M60 -289q44 -11 82 -17.5t69 -6.5q63 0 88.5 20t25.5 52q0 41 -30.5 57t-78.5 16q-3 0 -14 -1t-23 -2l-32 -2l33 190h97l-18 -107q42 -1 80 -9.5t66.5 -26.5t45.5 -45.5t17 -67.5t-18.5 -69.5t-51 -49t-76.5 -29t-95 -9.5q-39 0 -84 6.5t-91 15.5z" />
    <glyph glyph-name="onesuperior" unicode="&#xb9;" 
d="M240 1333q53 17 93 37.5t75 41.5l105 15v-707h122v-116h-365v119h122v346q0 33 -0.5 65.5t-0.5 65.5v71q-32 -17 -72 -35t-80 -33z" />
    <glyph glyph-name="ordmasculine" unicode="&#xba;" horiz-adv-x="824" 
d="M415 1476q88 0 155 -27.5t112.5 -75.5t68.5 -112.5t23 -139.5q0 -73 -23.5 -137.5t-69 -112.5t-112 -76t-153.5 -28q-90 0 -157.5 27.5t-113.5 75.5t-69 113.5t-23 140.5q0 74 24 138t70.5 111.5t113.5 75t154 27.5zM193 1123q0 -51 13.5 -96.5t41.5 -79t70 -53t98 -19.5
q53 0 94 19.5t69 53t42.5 78t14.5 93.5q0 52 -14.5 97.5t-42.5 79.5t-70 53.5t-96 19.5q-53 0 -94 -19.5t-69 -53.5t-42.5 -78.5t-14.5 -94.5z" />
    <glyph glyph-name="guillemotright" unicode="&#xbb;" horiz-adv-x="1156" 
d="M720 171h-157l261 371l-254 372h156l270 -372zM325 171h-160l265 371l-258 372h158l270 -372z" />
    <glyph glyph-name="onequarter" unicode="&#xbc;" horiz-adv-x="1986" 
d="M240 1333q53 17 93 37.5t75 41.5l105 15v-707h122v-116h-365v119h122v346q0 33 -0.5 65.5t-0.5 65.5v71q-32 -17 -72 -35t-80 -33zM1491 1436l-903 -1436h-151l905 1436h149zM1442 37v188h-378v91l366 518h134v-502h109l10 -107h-121v-188h-120zM1440 332v180l3 156
l-240 -336h237z" />
    <glyph glyph-name="onehalf" unicode="&#xbd;" horiz-adv-x="1858" 
d="M240 1333q53 17 93 37.5t75 41.5l105 15v-707h122v-116h-365v119h122v346q0 33 -0.5 65.5t-0.5 65.5v71q-32 -17 -72 -35t-80 -33zM1433 1436l-903 -1436h-151l905 1436h149zM1064 -25v111l95 87q55 51 112.5 106t104.5 108.5t76.5 103t29.5 91.5q0 51 -37 81.5
t-103 30.5q-63 0 -109.5 -35t-75.5 -96l-85 78q35 81 107.5 125.5t168.5 44.5q56 0 104 -16t83.5 -45.5t55.5 -71.5t20 -94q0 -65 -28.5 -125t-77.5 -119.5t-116 -120t-143 -126.5h364v-118h-546z" />
    <glyph glyph-name="threequarters" unicode="&#xbe;" horiz-adv-x="1921" 
d="M180 1340q46 45 113 73t139 28q52 0 101.5 -15t87 -44t60.5 -71.5t23 -97.5q0 -59 -27.5 -106t-79.5 -75q60 -27 94 -76.5t34 -121.5q0 -57 -24 -103t-65 -78.5t-95.5 -49.5t-114.5 -17q-72 0 -135 24.5t-111 72.5l60 96q84 -78 181 -78q36 0 68 9t55.5 26.5t37.5 43
t14 57.5q0 37 -15 62.5t-43 41.5t-68 23t-89 7q-4 0 -8 -0.5t-7 -0.5h-41v119h49q43 0 79 6t62.5 20.5t41 37.5t14.5 57q0 29 -10.5 50.5t-29.5 35t-44.5 20t-56.5 6.5q-54 0 -101.5 -21.5t-90.5 -56.5zM1477 1436l-903 -1436h-151l905 1436h149zM1411 41v188h-378v91
l366 518h134v-502h109l10 -107h-121v-188h-120zM1409 336v180l3 156l-240 -336h237z" />
    <glyph glyph-name="questiondown" unicode="&#xbf;" horiz-adv-x="1032" 
d="M689 702q2 -30 5 -60q2 -26 3.5 -54t1.5 -48q0 -61 -28.5 -112t-71 -97t-92.5 -89.5t-92.5 -89.5t-71 -96.5t-28.5 -110.5q0 -57 24 -97t64 -65.5t91.5 -37t106.5 -11.5q69 0 135 17.5t126 51.5v-146q-72 -35 -145 -50t-136 -15q-92 0 -171.5 21.5t-138 64.5t-92 107.5
t-33.5 151.5q0 63 29.5 120.5t73.5 111t95 103t95 97t73.5 94.5t29.5 94q0 23 -3 48t-6 47q-4 26 -8 50h164zM499 1081h217v-210h-217v210z" />
    <glyph glyph-name="Agrave" unicode="&#xc0;" horiz-adv-x="1425" 
d="M199 0h-186l604 1456h185l605 -1456h-191l-163 397h-698zM410 545h584l-234 605q-8 19 -17 44.5t-17 48.5q-10 27 -19 55q-10 -32 -20 -61q-8 -25 -17.5 -49.5t-14.5 -38.5zM482 1922h214l247 -320h-129z" />
    <glyph glyph-name="Aacute" unicode="&#xc1;" horiz-adv-x="1425" 
d="M199 0h-186l604 1456h185l605 -1456h-191l-163 397h-698zM410 545h584l-234 605q-8 19 -17 44.5t-17 48.5q-10 27 -19 55q-10 -32 -20 -61q-8 -25 -17.5 -49.5t-14.5 -38.5zM719 1922h212l-308 -320h-130z" />
    <glyph glyph-name="Acircumflex" unicode="&#xc2;" horiz-adv-x="1425" 
d="M199 0h-186l604 1456h185l605 -1456h-191l-163 397h-698zM410 545h584l-234 605q-8 19 -17 44.5t-17 48.5q-10 27 -19 55q-10 -32 -20 -61q-8 -25 -17.5 -49.5t-14.5 -38.5zM405 1600l228 324h157l229 -324h-132l-178 216l-178 -216h-126z" />
    <glyph glyph-name="Atilde" unicode="&#xc3;" horiz-adv-x="1425" 
d="M199 0h-186l604 1456h185l605 -1456h-191l-163 397h-698zM410 545h584l-234 605q-8 19 -17 44.5t-17 48.5q-10 27 -19 55q-10 -32 -20 -61q-8 -25 -17.5 -49.5t-14.5 -38.5zM1034 1865q-5 -45 -19.5 -84t-39.5 -68.5t-59 -46t-77 -16.5q-30 0 -62.5 10.5t-65.5 23.5
t-65 23.5t-60 10.5q-81 0 -91 -85h-105q4 47 20 85.5t41.5 66.5t60.5 43t77 15q35 0 67.5 -10.5t63.5 -23.5t60.5 -23.5t58.5 -10.5q34 0 57.5 22.5t29.5 67.5h108z" />
    <glyph glyph-name="Adieresis" unicode="&#xc4;" horiz-adv-x="1425" 
d="M199 0h-186l604 1456h185l605 -1456h-191l-163 397h-698zM410 545h584l-234 605q-8 19 -17 44.5t-17 48.5q-10 27 -19 55q-10 -32 -20 -61q-8 -25 -17.5 -49.5t-14.5 -38.5zM627 1676h-163v163h164zM960 1676h-164v163h164v-163z" />
    <glyph glyph-name="Aring" unicode="&#xc5;" horiz-adv-x="1425" 
d="M199 0h-186l604 1456h185l605 -1456h-191l-163 397h-698zM410 545h584l-234 605q-8 19 -17 44.5t-17 48.5q-10 27 -19 55q-10 -32 -20 -61q-8 -25 -17.5 -49.5t-14.5 -38.5zM822 1770q0 22 -8.5 41t-23.5 33t-35.5 22.5t-43.5 8.5q-22 0 -42 -8.5t-35 -22.5t-24 -33.5
t-9 -40.5q0 -46 29.5 -75.5t80.5 -29.5q22 0 42 8.5t35.5 22.5t24.5 33.5t9 40.5zM502 1769q0 41 16.5 76t45 60.5t67 40t81.5 14.5q44 0 82.5 -15t67 -40.5t44.5 -60.5t16 -74q0 -40 -17 -74.5t-45.5 -60.5t-66.5 -41t-80 -15q-44 0 -82.5 14.5t-67 40t-45 60.5t-16.5 75z
" />
    <glyph glyph-name="AE" unicode="&#xc6;" horiz-adv-x="2028" 
d="M944 1308l-438 -762h548l-60 762h-50zM836 1456h1039l3 -148h-719l38 -488h637l3 -148h-621l41 -524h641l3 -148h-797l-31 398h-646l-226 -398h-196z" />
    <glyph glyph-name="Ccedilla" unicode="&#xc7;" horiz-adv-x="1399" 
d="M1190 1219q-153 115 -357 115q-92 0 -168 -24.5t-136.5 -68t-105 -102.5t-74 -128t-44 -145.5t-14.5 -153.5q0 -118 31 -224.5t95 -187t162 -128t232 -47.5q123 0 231.5 35.5t190.5 107.5l58 -141q-93 -75 -220 -112.5t-286 -37.5q-165 0 -291 58t-212 158.5t-130 234
t-44 285.5q0 103 21.5 200t63 182.5t102.5 157t139.5 122.5t173.5 79.5t206 28.5q136 0 243 -36.5t198 -117.5zM499 -289q44 -11 82 -17.5t69 -6.5q63 0 88.5 20t25.5 52q0 41 -30.5 57t-78.5 16q-3 0 -14 -1t-23 -2l-32 -2l33 190h97l-18 -107q42 -1 80 -9.5t66.5 -26.5
t45.5 -45.5t17 -67.5t-18.5 -69.5t-51 -49t-76.5 -29t-95 -9.5q-39 0 -84 6.5t-91 15.5z" />
    <glyph glyph-name="Egrave" unicode="&#xc8;" horiz-adv-x="1218" 
d="M1102 0h-897v1456h867v-148h-695v-488h657v-148h-657v-524h725v-148zM378 1922h214l247 -320h-129z" />
    <glyph glyph-name="Eacute" unicode="&#xc9;" horiz-adv-x="1218" 
d="M1102 0h-897v1456h867v-148h-695v-488h657v-148h-657v-524h725v-148zM616 1922h212l-308 -320h-130z" />
    <glyph glyph-name="Ecircumflex" unicode="&#xca;" horiz-adv-x="1218" 
d="M1102 0h-897v1456h867v-148h-695v-488h657v-148h-657v-524h725v-148zM302 1600l228 324h157l229 -324h-132l-178 216l-178 -216h-126z" />
    <glyph glyph-name="Edieresis" unicode="&#xcb;" horiz-adv-x="1218" 
d="M1102 0h-897v1456h867v-148h-695v-488h657v-148h-657v-524h725v-148zM524 1676h-163v163h164zM857 1676h-164v163h164v-163z" />
    <glyph glyph-name="Igrave" unicode="&#xcc;" horiz-adv-x="591" 
d="M382 0h-172v1456h172v-1456zM65 1922h214l247 -320h-129z" />
    <glyph glyph-name="Iacute" unicode="&#xcd;" horiz-adv-x="591" 
d="M382 0h-172v1456h172v-1456zM304 1922h212l-308 -320h-130z" />
    <glyph glyph-name="Icircumflex" unicode="&#xce;" horiz-adv-x="591" 
d="M382 0h-172v1456h172v-1456zM-10 1600l228 324h157l229 -324h-132l-178 216l-178 -216h-126z" />
    <glyph glyph-name="Idieresis" unicode="&#xcf;" horiz-adv-x="591" 
d="M382 0h-172v1456h172v-1456zM212 1676h-163v163h164zM545 1676h-164v163h164v-163z" />
    <glyph glyph-name="Eth" unicode="&#xd0;" horiz-adv-x="1546" 
d="M193 658h-193l-1 137h194v661h315q130 0 249 -15t221.5 -49t186 -89.5t142.5 -137t91 -191t32 -250.5q0 -166 -55.5 -299.5t-161 -228t-258 -145.5t-345.5 -51h-417v658zM365 658v-510h261q159 0 276 42.5t194 118.5t114.5 181.5t37.5 230.5q0 164 -46 276.5
t-136.5 181.5t-225 99t-311.5 30h-164v-513h205l1 -137h-206z" />
    <glyph glyph-name="Ntilde" unicode="&#xd1;" horiz-adv-x="1594" 
d="M193 0v1456h206l747 -1114l78 -127v233v1008h171v-1456h-208l-750 1113l-72 124v-190v-1047h-172zM1119 1865q-5 -45 -19.5 -84t-39.5 -68.5t-59 -46t-77 -16.5q-30 0 -62.5 10.5t-65.5 23.5t-65 23.5t-60 10.5q-81 0 -91 -85h-105q4 47 20 85.5t41.5 66.5t60.5 43t77 15
q35 0 67.5 -10.5t63.5 -23.5t60.5 -23.5t58.5 -10.5q34 0 57.5 22.5t29.5 67.5h108z" />
    <glyph glyph-name="Ograve" unicode="&#xd2;" horiz-adv-x="1663" 
d="M1544 726q0 -165 -48.5 -302.5t-140.5 -237t-225 -154.5t-301 -55q-167 0 -299.5 53t-225 151t-141.5 237t-49 311q0 164 49 302t142 238.5t227 157t305 56.5q163 0 294 -54t223 -153t141 -238.5t49 -311.5zM298 725q0 -126 33.5 -235.5t100 -190.5t165.5 -127.5
t230 -46.5q132 0 231.5 46.5t165.5 128t99 193t33 241.5q0 127 -32.5 237t-98.5 191t-164.5 127t-230.5 46q-131 0 -230 -50t-166.5 -134t-101.5 -194.5t-34 -231.5zM601 1922h214l247 -320h-129z" />
    <glyph glyph-name="Oacute" unicode="&#xd3;" horiz-adv-x="1663" 
d="M1544 726q0 -165 -48.5 -302.5t-140.5 -237t-225 -154.5t-301 -55q-167 0 -299.5 53t-225 151t-141.5 237t-49 311q0 164 49 302t142 238.5t227 157t305 56.5q163 0 294 -54t223 -153t141 -238.5t49 -311.5zM298 725q0 -126 33.5 -235.5t100 -190.5t165.5 -127.5
t230 -46.5q132 0 231.5 46.5t165.5 128t99 193t33 241.5q0 127 -32.5 237t-98.5 191t-164.5 127t-230.5 46q-131 0 -230 -50t-166.5 -134t-101.5 -194.5t-34 -231.5zM838 1922h212l-308 -320h-130z" />
    <glyph glyph-name="Ocircumflex" unicode="&#xd4;" horiz-adv-x="1663" 
d="M1544 726q0 -165 -48.5 -302.5t-140.5 -237t-225 -154.5t-301 -55q-167 0 -299.5 53t-225 151t-141.5 237t-49 311q0 164 49 302t142 238.5t227 157t305 56.5q163 0 294 -54t223 -153t141 -238.5t49 -311.5zM298 725q0 -126 33.5 -235.5t100 -190.5t165.5 -127.5
t230 -46.5q132 0 231.5 46.5t165.5 128t99 193t33 241.5q0 127 -32.5 237t-98.5 191t-164.5 127t-230.5 46q-131 0 -230 -50t-166.5 -134t-101.5 -194.5t-34 -231.5zM524 1600l228 324h157l229 -324h-132l-178 216l-178 -216h-126z" />
    <glyph glyph-name="Otilde" unicode="&#xd5;" horiz-adv-x="1663" 
d="M1544 726q0 -165 -48.5 -302.5t-140.5 -237t-225 -154.5t-301 -55q-167 0 -299.5 53t-225 151t-141.5 237t-49 311q0 164 49 302t142 238.5t227 157t305 56.5q163 0 294 -54t223 -153t141 -238.5t49 -311.5zM298 725q0 -126 33.5 -235.5t100 -190.5t165.5 -127.5
t230 -46.5q132 0 231.5 46.5t165.5 128t99 193t33 241.5q0 127 -32.5 237t-98.5 191t-164.5 127t-230.5 46q-131 0 -230 -50t-166.5 -134t-101.5 -194.5t-34 -231.5zM1153 1865q-5 -45 -19.5 -84t-39.5 -68.5t-59 -46t-77 -16.5q-30 0 -62.5 10.5t-65.5 23.5t-65 23.5
t-60 10.5q-81 0 -91 -85h-105q4 47 20 85.5t41.5 66.5t60.5 43t77 15q35 0 67.5 -10.5t63.5 -23.5t60.5 -23.5t58.5 -10.5q34 0 57.5 22.5t29.5 67.5h108z" />
    <glyph glyph-name="Odieresis" unicode="&#xd6;" horiz-adv-x="1663" 
d="M1544 726q0 -165 -48.5 -302.5t-140.5 -237t-225 -154.5t-301 -55q-167 0 -299.5 53t-225 151t-141.5 237t-49 311q0 164 49 302t142 238.5t227 157t305 56.5q163 0 294 -54t223 -153t141 -238.5t49 -311.5zM298 725q0 -126 33.5 -235.5t100 -190.5t165.5 -127.5
t230 -46.5q132 0 231.5 46.5t165.5 128t99 193t33 241.5q0 127 -32.5 237t-98.5 191t-164.5 127t-230.5 46q-131 0 -230 -50t-166.5 -134t-101.5 -194.5t-34 -231.5zM746 1676h-163v163h164zM1079 1676h-164v163h164v-163z" />
    <glyph glyph-name="multiply" unicode="&#xd7;" horiz-adv-x="1458" 
d="M825 554l297 -296l-104 -104l-296 296l-297 -296l-103 103l296 297l-296 297l103 103l297 -297l296 297l104 -104z" />
    <glyph glyph-name="Oslash" unicode="&#xd8;" horiz-adv-x="1663" 
d="M1544 726q0 -165 -48.5 -302.5t-140.5 -237t-225 -154.5t-301 -55q-167 0 -299.5 53t-225 151t-141.5 237t-49 311q0 164 49 302t142 238.5t227 157t305 56.5q163 0 294 -54t223 -153t141 -238.5t49 -311.5zM298 725q0 -126 33.5 -235.5t100 -190.5t165.5 -127.5
t230 -46.5q132 0 231.5 46.5t165.5 128t99 193t33 241.5q0 127 -32.5 237t-98.5 191t-164.5 127t-230.5 46q-131 0 -230 -50t-166.5 -134t-101.5 -194.5t-34 -231.5zM442 -117l637 1666h167l-641 -1666h-163z" />
    <glyph glyph-name="Ugrave" unicode="&#xd9;" horiz-adv-x="1532" 
d="M191 1456h172v-910q0 -204 101 -312.5t299 -108.5q91 0 165.5 28.5t127 82t81 130.5t28.5 173v917h172l-1 -905q-1 -135 -37.5 -242t-109 -180.5t-181 -112.5t-252.5 -39q-156 0 -264 41t-175 115.5t-96.5 178.5t-29.5 229v915zM535 1922h214l247 -320h-129z" />
    <glyph glyph-name="Uacute" unicode="&#xda;" horiz-adv-x="1532" 
d="M191 1456h172v-910q0 -204 101 -312.5t299 -108.5q91 0 165.5 28.5t127 82t81 130.5t28.5 173v917h172l-1 -905q-1 -135 -37.5 -242t-109 -180.5t-181 -112.5t-252.5 -39q-156 0 -264 41t-175 115.5t-96.5 178.5t-29.5 229v915zM773 1922h212l-308 -320h-130z" />
    <glyph glyph-name="Ucircumflex" unicode="&#xdb;" horiz-adv-x="1532" 
d="M191 1456h172v-910q0 -204 101 -312.5t299 -108.5q91 0 165.5 28.5t127 82t81 130.5t28.5 173v917h172l-1 -905q-1 -135 -37.5 -242t-109 -180.5t-181 -112.5t-252.5 -39q-156 0 -264 41t-175 115.5t-96.5 178.5t-29.5 229v915zM459 1600l228 324h157l229 -324h-132
l-178 216l-178 -216h-126z" />
    <glyph glyph-name="Udieresis" unicode="&#xdc;" horiz-adv-x="1532" 
d="M191 1456h172v-910q0 -204 101 -312.5t299 -108.5q91 0 165.5 28.5t127 82t81 130.5t28.5 173v917h172l-1 -905q-1 -135 -37.5 -242t-109 -180.5t-181 -112.5t-252.5 -39q-156 0 -264 41t-175 115.5t-96.5 178.5t-29.5 229v915zM681 1676h-163v163h164zM1014 1676h-164
v163h164v-163z" />
    <glyph glyph-name="Yacute" unicode="&#xdd;" horiz-adv-x="1266" 
d="M543 0v582l-533 874h191l431 -729l435 729h191l-543 -871v-585h-172zM640 1922h212l-308 -320h-130z" />
    <glyph glyph-name="Thorn" unicode="&#xde;" horiz-adv-x="1274" 
d="M375 0h-172v1456h172v-144h169q85 0 166.5 -7.5t154.5 -26t134.5 -50t106 -80t69.5 -115.5t25 -157q0 -114 -49.5 -196t-133 -134.5t-192.5 -77.5t-228 -25h-222v-443zM375 1164v-572h261q82 0 152 16.5t120.5 51t79 87.5t28.5 127q0 87 -31.5 143.5t-88 89t-135 45
t-173.5 12.5h-213z" />
    <glyph glyph-name="germandbls" unicode="&#xdf;" horiz-adv-x="1257" 
d="M536 243q59 -69 125.5 -101.5t126.5 -32.5q40 0 76 14t63 41t43 67t16 91q0 76 -34.5 136t-89.5 109.5t-123 90.5t-134 79l-33 19l16 136q46 21 88.5 51t75 68.5t52 83.5t19.5 96q0 45 -16 80t-44.5 60t-69.5 38t-90 13q-70 0 -120.5 -27.5t-82.5 -74t-47.5 -109.5
t-15.5 -133q0 -65 0.5 -149t0.5 -178t1 -192.5t1 -192.5t0.5 -178t0.5 -148h-165l-2 1071q-1 100 28 181t84.5 138.5t135.5 89t182 31.5q96 0 171.5 -25t128 -68.5t80 -101.5t27.5 -124q0 -67 -32 -126.5t-78 -108t-96 -85.5t-86 -59q-7 -4 -7 -7t7 -6q79 -31 159.5 -69.5
t146 -92.5t107 -126t41.5 -171q0 -83 -32 -150t-85.5 -114.5t-122 -73.5t-141.5 -26q-86 0 -170.5 38.5t-150.5 122.5z" />
    <glyph glyph-name="agrave" unicode="&#xe0;" horiz-adv-x="1244" 
d="M582 1051q63 0 115 -11.5t96 -32.5t81 -52t69 -70l6 141h163l-4 -253v-773h-165l2 144q-24 -32 -60.5 -62.5t-82.5 -53.5t-101.5 -37t-116.5 -14q-86 0 -156 22.5t-125 62t-95.5 92.5t-66.5 114t-39 126.5t-13 129.5q0 99 30.5 194t92 169t154 119t216.5 45zM601 109
q70 0 131.5 28.5t108 84t74 138t28.5 190.5q0 81 -24.5 148t-69.5 116t-109.5 76t-144.5 27q-61 0 -110 -16.5t-87 -45.5t-66 -68t-46 -83.5t-26.5 -92.5t-8.5 -95q0 -46 6.5 -94.5t21.5 -93.5t41 -85t64.5 -69.5t92 -47t124.5 -17.5zM391 1492h214l247 -320h-129z" />
    <glyph glyph-name="aacute" unicode="&#xe1;" horiz-adv-x="1244" 
d="M582 1051q63 0 115 -11.5t96 -32.5t81 -52t69 -70l6 141h163l-4 -253v-773h-165l2 144q-24 -32 -60.5 -62.5t-82.5 -53.5t-101.5 -37t-116.5 -14q-86 0 -156 22.5t-125 62t-95.5 92.5t-66.5 114t-39 126.5t-13 129.5q0 99 30.5 194t92 169t154 119t216.5 45zM601 109
q70 0 131.5 28.5t108 84t74 138t28.5 190.5q0 81 -24.5 148t-69.5 116t-109.5 76t-144.5 27q-61 0 -110 -16.5t-87 -45.5t-66 -68t-46 -83.5t-26.5 -92.5t-8.5 -95q0 -46 6.5 -94.5t21.5 -93.5t41 -85t64.5 -69.5t92 -47t124.5 -17.5zM629 1492h212l-308 -320h-130z" />
    <glyph glyph-name="acircumflex" unicode="&#xe2;" horiz-adv-x="1244" 
d="M582 1051q63 0 115 -11.5t96 -32.5t81 -52t69 -70l6 141h163l-4 -253v-773h-165l2 144q-24 -32 -60.5 -62.5t-82.5 -53.5t-101.5 -37t-116.5 -14q-86 0 -156 22.5t-125 62t-95.5 92.5t-66.5 114t-39 126.5t-13 129.5q0 99 30.5 194t92 169t154 119t216.5 45zM601 109
q70 0 131.5 28.5t108 84t74 138t28.5 190.5q0 81 -24.5 148t-69.5 116t-109.5 76t-144.5 27q-61 0 -110 -16.5t-87 -45.5t-66 -68t-46 -83.5t-26.5 -92.5t-8.5 -95q0 -46 6.5 -94.5t21.5 -93.5t41 -85t64.5 -69.5t92 -47t124.5 -17.5zM315 1170l228 324h157l229 -324h-132
l-178 216l-178 -216h-126z" />
    <glyph glyph-name="atilde" unicode="&#xe3;" horiz-adv-x="1244" 
d="M582 1051q63 0 115 -11.5t96 -32.5t81 -52t69 -70l6 141h163l-4 -253v-773h-165l2 144q-24 -32 -60.5 -62.5t-82.5 -53.5t-101.5 -37t-116.5 -14q-86 0 -156 22.5t-125 62t-95.5 92.5t-66.5 114t-39 126.5t-13 129.5q0 99 30.5 194t92 169t154 119t216.5 45zM601 109
q70 0 131.5 28.5t108 84t74 138t28.5 190.5q0 81 -24.5 148t-69.5 116t-109.5 76t-144.5 27q-61 0 -110 -16.5t-87 -45.5t-66 -68t-46 -83.5t-26.5 -92.5t-8.5 -95q0 -46 6.5 -94.5t21.5 -93.5t41 -85t64.5 -69.5t92 -47t124.5 -17.5zM944 1435q-5 -45 -19.5 -84
t-39.5 -68.5t-59 -46t-77 -16.5q-30 0 -62.5 10.5t-65.5 23.5t-65 23.5t-60 10.5q-81 0 -91 -85h-105q4 47 20 85.5t41.5 66.5t60.5 43t77 15q35 0 67.5 -10.5t63.5 -23.5t60.5 -23.5t58.5 -10.5q34 0 57.5 22.5t29.5 67.5h108z" />
    <glyph glyph-name="adieresis" unicode="&#xe4;" horiz-adv-x="1244" 
d="M582 1051q63 0 115 -11.5t96 -32.5t81 -52t69 -70l6 141h163l-4 -253v-773h-165l2 144q-24 -32 -60.5 -62.5t-82.5 -53.5t-101.5 -37t-116.5 -14q-86 0 -156 22.5t-125 62t-95.5 92.5t-66.5 114t-39 126.5t-13 129.5q0 99 30.5 194t92 169t154 119t216.5 45zM601 109
q70 0 131.5 28.5t108 84t74 138t28.5 190.5q0 81 -24.5 148t-69.5 116t-109.5 76t-144.5 27q-61 0 -110 -16.5t-87 -45.5t-66 -68t-46 -83.5t-26.5 -92.5t-8.5 -95q0 -46 6.5 -94.5t21.5 -93.5t41 -85t64.5 -69.5t92 -47t124.5 -17.5zM537 1246h-163v163h164zM870 1246h-164
v163h164v-163z" />
    <glyph glyph-name="aring" unicode="&#xe5;" horiz-adv-x="1244" 
d="M582 1051q63 0 115 -11.5t96 -32.5t81 -52t69 -70l6 141h163l-4 -253v-773h-165l2 144q-24 -32 -60.5 -62.5t-82.5 -53.5t-101.5 -37t-116.5 -14q-86 0 -156 22.5t-125 62t-95.5 92.5t-66.5 114t-39 126.5t-13 129.5q0 99 30.5 194t92 169t154 119t216.5 45zM601 109
q70 0 131.5 28.5t108 84t74 138t28.5 190.5q0 81 -24.5 148t-69.5 116t-109.5 76t-144.5 27q-61 0 -110 -16.5t-87 -45.5t-66 -68t-46 -83.5t-26.5 -92.5t-8.5 -95q0 -46 6.5 -94.5t21.5 -93.5t41 -85t64.5 -69.5t92 -47t124.5 -17.5zM732 1340q0 22 -8.5 41t-23.5 33
t-35.5 22.5t-43.5 8.5q-22 0 -42 -8.5t-35 -22.5t-24 -33.5t-9 -40.5q0 -46 29.5 -75.5t80.5 -29.5q22 0 42 8.5t35.5 22.5t24.5 33.5t9 40.5zM412 1339q0 41 16.5 76t45 60.5t67 40t81.5 14.5q44 0 82.5 -15t67 -40.5t44.5 -60.5t16 -74q0 -40 -17 -74.5t-45.5 -60.5
t-66.5 -41t-80 -15q-44 0 -82.5 14.5t-67 40t-45 60.5t-16.5 75z" />
    <glyph glyph-name="ae" unicode="&#xe6;" horiz-adv-x="1896" 
d="M1786 117q-169 -142 -415 -140q-155 -2 -255 55.5t-167 173.5q-33 -73 -78.5 -114.5t-102.5 -67t-125.5 -37t-147.5 -13.5q-78 0 -142.5 21.5t-111.5 62t-73 98.5t-26 131t26.5 129t75 95t116.5 61.5t152 29.5q87 8 176 12t181 6l-1 21q-7 55 -23 104.5t-47 87t-80 60
t-122 22.5q-47 0 -91.5 -8t-83.5 -25t-71.5 -45.5t-55.5 -68.5l-97 94q30 51 72 87t94.5 59t113.5 33.5t130 10.5q63 -2 120 -15t104 -39.5t81.5 -66t52.5 -93.5q31 57 72.5 97.5t91 66.5t104 38t110.5 12q113 0 196 -40.5t138 -110.5t81.5 -162.5t26.5 -195.5
q0 -7 -0.5 -22.5t-2.5 -31.5h-748v-21q0 -81 18.5 -140.5t58 -110.5t112 -79t153.5 -29q118 1 199.5 40t156.5 105zM870 479q-38 0 -75 -1t-75 -1q-81 -2 -156 -8.5t-133.5 -26t-93.5 -55.5t-35 -96q0 -48 19 -82.5t51 -56t73 -31.5t86 -10q97 0 162.5 30t104.5 80.5
t55.5 116.5t16.5 138v3zM1629 608q1 1 1 2q0 67 -18.5 120.5t-55 94.5t-90 65.5t-123.5 24.5q-72 0 -128 -24t-95 -65t-61 -95t-26 -124z" />
    <glyph glyph-name="ccedilla" unicode="&#xe7;" horiz-adv-x="1046" 
d="M881 801q-48 60 -117 88t-147 28q-83 0 -148 -32t-110.5 -87.5t-69.5 -130t-24 -159.5q0 -84 21 -157t64 -127t109 -84.5t156 -30.5q169 0 303 116l46 -138q-73 -58 -163 -84t-199 -26q-127 0 -222.5 41.5t-159.5 113t-96 167.5t-32 204q0 112 34 212t99 174.5t160 118
t217 43.5q121 0 212 -38t142 -105zM444 -289q44 -11 82 -17.5t69 -6.5q63 0 88.5 20t25.5 52q0 41 -30.5 57t-78.5 16q-3 0 -14 -1t-23 -2l-32 -2l33 190h97l-18 -107q42 -1 80 -9.5t66.5 -26.5t45.5 -45.5t17 -67.5t-18.5 -69.5t-51 -49t-76.5 -29t-95 -9.5q-39 0 -84 6.5
t-91 15.5z" />
    <glyph glyph-name="egrave" unicode="&#xe8;" horiz-adv-x="1173" 
d="M906 609l-1 14q-5 65 -25.5 119t-56.5 93t-87.5 60.5t-116.5 21.5q-70 0 -126 -24.5t-96.5 -66.5t-65.5 -98t-34 -119h609zM1039 115q-83 -72 -184 -105t-229 -33q-121 0 -216 39.5t-160.5 110t-100 168.5t-34.5 215q0 111 34 209t99 172t158.5 117t213.5 43
q118 0 205 -38.5t143 -106t83.5 -160.5t27.5 -202q0 -11 -0.5 -25.5t-1.5 -26.5h-787l3 -45q6 -75 30.5 -137t67.5 -107t104.5 -69.5t140.5 -24.5q106 0 194 37t158 106zM356 1492h214l247 -320h-129z" />
    <glyph glyph-name="eacute" unicode="&#xe9;" horiz-adv-x="1173" 
d="M906 609l-1 14q-5 65 -25.5 119t-56.5 93t-87.5 60.5t-116.5 21.5q-70 0 -126 -24.5t-96.5 -66.5t-65.5 -98t-34 -119h609zM1039 115q-83 -72 -184 -105t-229 -33q-121 0 -216 39.5t-160.5 110t-100 168.5t-34.5 215q0 111 34 209t99 172t158.5 117t213.5 43
q118 0 205 -38.5t143 -106t83.5 -160.5t27.5 -202q0 -11 -0.5 -25.5t-1.5 -26.5h-787l3 -45q6 -75 30.5 -137t67.5 -107t104.5 -69.5t140.5 -24.5q106 0 194 37t158 106zM593 1492h212l-308 -320h-130z" />
    <glyph glyph-name="ecircumflex" unicode="&#xea;" horiz-adv-x="1173" 
d="M906 609l-1 14q-5 65 -25.5 119t-56.5 93t-87.5 60.5t-116.5 21.5q-70 0 -126 -24.5t-96.5 -66.5t-65.5 -98t-34 -119h609zM1039 115q-83 -72 -184 -105t-229 -33q-121 0 -216 39.5t-160.5 110t-100 168.5t-34.5 215q0 111 34 209t99 172t158.5 117t213.5 43
q118 0 205 -38.5t143 -106t83.5 -160.5t27.5 -202q0 -11 -0.5 -25.5t-1.5 -26.5h-787l3 -45q6 -75 30.5 -137t67.5 -107t104.5 -69.5t140.5 -24.5q106 0 194 37t158 106zM279 1170l228 324h157l229 -324h-132l-178 216l-178 -216h-126z" />
    <glyph glyph-name="edieresis" unicode="&#xeb;" horiz-adv-x="1173" 
d="M906 609l-1 14q-5 65 -25.5 119t-56.5 93t-87.5 60.5t-116.5 21.5q-70 0 -126 -24.5t-96.5 -66.5t-65.5 -98t-34 -119h609zM1039 115q-83 -72 -184 -105t-229 -33q-121 0 -216 39.5t-160.5 110t-100 168.5t-34.5 215q0 111 34 209t99 172t158.5 117t213.5 43
q118 0 205 -38.5t143 -106t83.5 -160.5t27.5 -202q0 -11 -0.5 -25.5t-1.5 -26.5h-787l3 -45q6 -75 30.5 -137t67.5 -107t104.5 -69.5t140.5 -24.5q106 0 194 37t158 106zM501 1246h-163v163h164zM834 1246h-164v163h164v-163z" />
    <glyph glyph-name="igrave" unicode="&#xec;" horiz-adv-x="503" 
d="M333 0h-165l-1 1026h165zM21 1492h214l247 -320h-129z" />
    <glyph glyph-name="iacute" unicode="&#xed;" horiz-adv-x="503" 
d="M333 0h-165l-1 1026h165zM260 1492h212l-308 -320h-130z" />
    <glyph glyph-name="icircumflex" unicode="&#xee;" horiz-adv-x="503" 
d="M333 0h-165l-1 1026h165zM-54 1170l228 324h157l229 -324h-132l-178 216l-178 -216h-126z" />
    <glyph glyph-name="idieresis" unicode="&#xef;" horiz-adv-x="503" 
d="M333 0h-165l-1 1026h165zM168 1246h-163v163h164zM501 1246h-164v163h164v-163z" />
    <glyph glyph-name="eth" unicode="&#xf0;" 
d="M653 1490q113 -44 198 -127t142 -200h197v-137h-145q23 -80 35.5 -168.5t12.5 -185.5q0 -168 -34 -297.5t-99.5 -218t-161 -134t-217.5 -45.5q-113 0 -204.5 36t-155.5 99t-98.5 149t-34.5 185t32 182t91.5 142.5t144 93t189.5 33.5q125 0 220.5 -42t152.5 -132v2
q0 172 -36 301h-262v137h206q-43 78 -105 137t-147 106zM572 757q-79 0 -137 -24t-96 -66.5t-56.5 -100.5t-18.5 -125q0 -69 22 -128t62.5 -102.5t97.5 -68t127 -24.5q87 0 149.5 33.5t102.5 88t58.5 123t18.5 138.5v18t1 17q-17 49 -48.5 89.5t-74.5 70t-95.5 45.5
t-112.5 16z" />
    <glyph glyph-name="ntilde" unicode="&#xf1;" horiz-adv-x="1217" 
d="M333 0h-165v779q0 46 -1 90.5t-2 79.5q-2 40 -3 77h167l4 -142q60 85 144.5 126t199.5 41q112 0 185 -37t115.5 -103.5t59 -158.5t16.5 -202v-550h-165v531q0 87 -7.5 158.5t-32 122t-72.5 78t-129 27.5q-75 0 -133 -29t-98 -70t-61.5 -86.5t-21.5 -79.5v-652zM930 1435
q-5 -45 -19.5 -84t-39.5 -68.5t-59 -46t-77 -16.5q-30 0 -62.5 10.5t-65.5 23.5t-65 23.5t-60 10.5q-81 0 -91 -85h-105q4 47 20 85.5t41.5 66.5t60.5 43t77 15q35 0 67.5 -10.5t63.5 -23.5t60.5 -23.5t58.5 -10.5q34 0 57.5 22.5t29.5 67.5h108z" />
    <glyph glyph-name="ograve" unicode="&#xf2;" horiz-adv-x="1238" 
d="M620 1051q129 0 226.5 -42t162.5 -115t98 -171t33 -210q0 -108 -34.5 -205.5t-101 -171t-164.5 -116.5t-224 -43q-128 0 -226 42t-164.5 114t-101 169.5t-34.5 208.5t35 209.5t102.5 172t166 116t226.5 42.5zM966 511q0 82 -21 156t-64 129.5t-109 88t-156 32.5
q-87 0 -153 -33.5t-110.5 -90t-67 -130.5t-22.5 -154t22.5 -152t67 -127.5t111.5 -88t156 -32.5q88 0 153 33t108 88.5t64 128t21 152.5zM388 1492h214l247 -320h-129z" />
    <glyph glyph-name="oacute" unicode="&#xf3;" horiz-adv-x="1238" 
d="M620 1051q129 0 226.5 -42t162.5 -115t98 -171t33 -210q0 -108 -34.5 -205.5t-101 -171t-164.5 -116.5t-224 -43q-128 0 -226 42t-164.5 114t-101 169.5t-34.5 208.5t35 209.5t102.5 172t166 116t226.5 42.5zM966 511q0 82 -21 156t-64 129.5t-109 88t-156 32.5
q-87 0 -153 -33.5t-110.5 -90t-67 -130.5t-22.5 -154t22.5 -152t67 -127.5t111.5 -88t156 -32.5q88 0 153 33t108 88.5t64 128t21 152.5zM626 1492h212l-308 -320h-130z" />
    <glyph glyph-name="ocircumflex" unicode="&#xf4;" horiz-adv-x="1238" 
d="M620 1051q129 0 226.5 -42t162.5 -115t98 -171t33 -210q0 -108 -34.5 -205.5t-101 -171t-164.5 -116.5t-224 -43q-128 0 -226 42t-164.5 114t-101 169.5t-34.5 208.5t35 209.5t102.5 172t166 116t226.5 42.5zM966 511q0 82 -21 156t-64 129.5t-109 88t-156 32.5
q-87 0 -153 -33.5t-110.5 -90t-67 -130.5t-22.5 -154t22.5 -152t67 -127.5t111.5 -88t156 -32.5q88 0 153 33t108 88.5t64 128t21 152.5zM312 1170l228 324h157l229 -324h-132l-178 216l-178 -216h-126z" />
    <glyph glyph-name="otilde" unicode="&#xf5;" horiz-adv-x="1238" 
d="M620 1051q129 0 226.5 -42t162.5 -115t98 -171t33 -210q0 -108 -34.5 -205.5t-101 -171t-164.5 -116.5t-224 -43q-128 0 -226 42t-164.5 114t-101 169.5t-34.5 208.5t35 209.5t102.5 172t166 116t226.5 42.5zM966 511q0 82 -21 156t-64 129.5t-109 88t-156 32.5
q-87 0 -153 -33.5t-110.5 -90t-67 -130.5t-22.5 -154t22.5 -152t67 -127.5t111.5 -88t156 -32.5q88 0 153 33t108 88.5t64 128t21 152.5zM941 1435q-5 -45 -19.5 -84t-39.5 -68.5t-59 -46t-77 -16.5q-30 0 -62.5 10.5t-65.5 23.5t-65 23.5t-60 10.5q-81 0 -91 -85h-105
q4 47 20 85.5t41.5 66.5t60.5 43t77 15q35 0 67.5 -10.5t63.5 -23.5t60.5 -23.5t58.5 -10.5q34 0 57.5 22.5t29.5 67.5h108z" />
    <glyph glyph-name="odieresis" unicode="&#xf6;" horiz-adv-x="1238" 
d="M620 1051q129 0 226.5 -42t162.5 -115t98 -171t33 -210q0 -108 -34.5 -205.5t-101 -171t-164.5 -116.5t-224 -43q-128 0 -226 42t-164.5 114t-101 169.5t-34.5 208.5t35 209.5t102.5 172t166 116t226.5 42.5zM966 511q0 82 -21 156t-64 129.5t-109 88t-156 32.5
q-87 0 -153 -33.5t-110.5 -90t-67 -130.5t-22.5 -154t22.5 -152t67 -127.5t111.5 -88t156 -32.5q88 0 153 33t108 88.5t64 128t21 152.5zM534 1246h-163v163h164zM867 1246h-164v163h164v-163z" />
    <glyph glyph-name="divide" unicode="&#xf7;" horiz-adv-x="1458" 
d="M200 485l-2 139h1047l1 -139h-1046zM836 873h-217v210h217v-210zM836 21h-217v210h217v-210z" />
    <glyph glyph-name="oslash" unicode="&#xf8;" horiz-adv-x="1238" 
d="M620 1051q85 0 160 -20l104 246l103 -32l-107 -252q64 -33 113 -82.5t81.5 -111.5t49 -134.5t16.5 -151.5q0 -108 -34.5 -205.5t-101 -171t-164.5 -116.5t-224 -43q-85 0 -160 20l-110 -258l-99 32l111 263q-66 33 -116 82t-83.5 110.5t-51 133.5t-17.5 151
q0 111 35 209.5t102.5 172t166 116t226.5 42.5zM263 509q0 -52 9.5 -101.5t28.5 -93t47.5 -80.5t66.5 -64l310 732q-25 7 -52 11t-57 4q-87 0 -153 -33.5t-110.5 -90t-67 -130.5t-22.5 -154zM966 511q0 108 -35.5 198.5t-109.5 145.5l-311 -731q49 -15 110 -15q88 0 153 33
t108 88.5t64 128t21 152.5z" />
    <glyph glyph-name="ugrave" unicode="&#xf9;" horiz-adv-x="1217" 
d="M878 1026h165v-780q0 -66 1.5 -124.5t6.5 -121.5h-170l-3 135q-116 -158 -338 -158q-76 0 -134 17.5t-100.5 47.5t-71 71t-45.5 88t-24.5 97.5t-7.5 100.5v627h165v-627q-1 -143 61 -216.5t195 -73.5q72 0 127.5 26t94 71t58.5 104.5t20 125.5v590zM378 1492h214
l247 -320h-129z" />
    <glyph glyph-name="uacute" unicode="&#xfa;" horiz-adv-x="1217" 
d="M878 1026h165v-780q0 -66 1.5 -124.5t6.5 -121.5h-170l-3 135q-116 -158 -338 -158q-76 0 -134 17.5t-100.5 47.5t-71 71t-45.5 88t-24.5 97.5t-7.5 100.5v627h165v-627q-1 -143 61 -216.5t195 -73.5q72 0 127.5 26t94 71t58.5 104.5t20 125.5v590zM615 1492h212
l-308 -320h-130z" />
    <glyph glyph-name="ucircumflex" unicode="&#xfb;" horiz-adv-x="1217" 
d="M878 1026h165v-780q0 -66 1.5 -124.5t6.5 -121.5h-170l-3 135q-116 -158 -338 -158q-76 0 -134 17.5t-100.5 47.5t-71 71t-45.5 88t-24.5 97.5t-7.5 100.5v627h165v-627q-1 -143 61 -216.5t195 -73.5q72 0 127.5 26t94 71t58.5 104.5t20 125.5v590zM301 1170l228 324h157
l229 -324h-132l-178 216l-178 -216h-126z" />
    <glyph glyph-name="udieresis" unicode="&#xfc;" horiz-adv-x="1217" 
d="M878 1026h165v-780q0 -66 1.5 -124.5t6.5 -121.5h-170l-3 135q-116 -158 -338 -158q-76 0 -134 17.5t-100.5 47.5t-71 71t-45.5 88t-24.5 97.5t-7.5 100.5v627h165v-627q-1 -143 61 -216.5t195 -73.5q72 0 127.5 26t94 71t58.5 104.5t20 125.5v590zM523 1246h-163v163
h164zM856 1246h-164v163h164v-163z" />
    <glyph glyph-name="yacute" unicode="&#xfd;" horiz-adv-x="1069" 
d="M17 1026h181l332 -855l341 855h175l-454 -1098q-27 -66 -65 -125t-87 -105.5t-108.5 -79t-130.5 -45.5l-92 113q84 22 139 54t90 68t54.5 74.5t32.5 74.5l17 49zM541 1492h212l-308 -320h-130z" />
    <glyph glyph-name="thorn" unicode="&#xfe;" horiz-adv-x="1239" 
d="M323 -427h-165v1882h167v-573q63 84 151 126.5t192 42.5q121 0 209.5 -42t146.5 -113.5t86.5 -166.5t28.5 -202q0 -108 -29.5 -207.5t-88 -175.5t-147 -121.5t-206.5 -45.5q-216 0 -345 158v-562zM323 494q0 -83 21 -153.5t61.5 -122t100.5 -80.5t138 -29q84 0 144.5 34
t99 91t57 131.5t18.5 155.5q0 76 -16 147.5t-52.5 127t-96.5 88.5t-148 33q-92 0 -154.5 -35t-101 -93.5t-55 -135t-16.5 -159.5z" />
    <glyph glyph-name="ydieresis" unicode="&#xff;" horiz-adv-x="1069" 
d="M17 1026h181l332 -855l341 855h175l-454 -1098q-27 -66 -65 -125t-87 -105.5t-108.5 -79t-130.5 -45.5l-92 113q84 22 139 54t90 68t54.5 74.5t32.5 74.5l17 49zM449 1246h-163v163h164zM782 1246h-164v163h164v-163z" />
    <glyph glyph-name="dotlessi" unicode="&#x131;" horiz-adv-x="503" 
d="M333 0h-165l-1 1026h165z" />
    <glyph glyph-name="Lslash" unicode="&#x141;" horiz-adv-x="1120" 
d="M1073 0h-871v674l-159 -82l-63 121l222 115v628h172v-538l275 143l63 -121l-338 -176v-616h697z" />
    <glyph glyph-name="lslash" unicode="&#x142;" horiz-adv-x="503" 
d="M333 1492v-589l155 81l63 -121l-218 -114v-749h-165v664l-139 -72l-63 121l202 105v674h165z" />
    <glyph glyph-name="OE" unicode="&#x152;" horiz-adv-x="2099" 
d="M1984 0h-833v105q-70 -62 -150.5 -95t-171.5 -33q-167 0 -299.5 53t-225 151t-141.5 237t-49 311q0 164 49 302t142 238.5t227 157t305 56.5q88 0 166.5 -26.5t147.5 -75.5v75h803v-148h-631v-488h593v-148h-593v-524h661v-148zM827 125q100 0 180.5 37t143.5 103v954
q-62 55 -141.5 85.5t-179.5 30.5q-131 0 -230 -50t-166.5 -134t-101.5 -194.5t-34 -231.5q0 -126 33.5 -235.5t100 -190.5t165.5 -127.5t230 -46.5z" />
    <glyph glyph-name="oe" unicode="&#x153;" horiz-adv-x="1970" 
d="M1113 470q0 -77 19 -143t57.5 -114.5t96 -76t135.5 -27.5q103 0 188.5 49.5t138.5 133.5l88 -86q-67 -121 -178.5 -177.5t-247.5 -56.5t-237.5 58.5t-150.5 178.5l-1 -3q-24 -61 -65 -105.5t-94.5 -73t-117.5 -42t-134 -13.5q-123 0 -219.5 42t-162.5 115t-101 171
t-35 209t35 210t102.5 173.5t166 117.5t224.5 43q148 0 247.5 -58.5t159.5 -173.5q55 115 153.5 173.5t236.5 58.5q110 0 194.5 -38t141.5 -107t86 -166.5t29 -216.5v-53zM1695 609q1 66 -16 122.5t-51 98t-85 64.5t-120 23t-124.5 -25.5t-95.5 -68t-63 -98.5t-27 -116h582z
M945 511q0 86 -19.5 160.5t-60 129t-103.5 85.5t-150 31q-85 0 -149.5 -33.5t-108.5 -90t-66.5 -130.5t-22.5 -156q0 -81 21.5 -153t65.5 -126.5t110.5 -86.5t157.5 -32q84 0 145.5 33t101.5 88.5t59 128t19 152.5z" />
    <glyph glyph-name="Scaron" unicode="&#x160;" horiz-adv-x="1244" 
d="M215 271q33 -40 77.5 -67.5t94 -45t102 -25.5t102.5 -8q79 0 145 15.5t113.5 46t74 75t26.5 103.5q0 66 -35 112.5t-91.5 82.5t-129.5 64.5t-148.5 58.5t-148.5 64.5t-129.5 82t-91.5 112t-35 153.5q0 96 45 168.5t119 121t168 73.5t193 25q57 0 117 -7t115.5 -25
t103 -47.5t79.5 -74.5l-83 -112q-30 33 -68.5 55.5t-82 36t-89.5 19.5t-91 6q-61 0 -122 -12.5t-110 -40t-80 -71t-31 -105.5q0 -64 35 -110.5t92 -82.5t129.5 -66t148.5 -61t148.5 -67t129.5 -85t92 -114.5t35 -154.5q0 -71 -23 -127.5t-63 -99.5t-94 -73.5t-116.5 -49.5
t-130.5 -28t-135 -9q-73 0 -139 13t-122 37t-100.5 58t-73.5 76zM938 1923l-238 -323h-156l-239 323h147l164 -215l168 215h154z" />
    <glyph glyph-name="scaron" unicode="&#x161;" horiz-adv-x="1007" 
d="M790 847q-54 37 -130 53.5t-158 16.5q-46 0 -85 -10t-67.5 -28.5t-45 -45t-16.5 -59.5q0 -35 17 -60t46 -43.5t68 -33t83 -27.5q40 -12 85.5 -25t90.5 -30.5t86 -41t72.5 -55.5t50 -75t18.5 -99q0 -78 -36 -135.5t-95 -95.5t-135 -57t-156 -19q-53 0 -105 6t-99.5 20
t-88 36t-69.5 55l44 135q27 -32 63 -55t77.5 -37.5t85.5 -21t86 -6.5q56 0 103 10.5t81.5 31t54 51t19.5 70.5q0 46 -22 74.5t-61 49t-93 36t-117 35.5q-75 24 -135.5 50.5t-102.5 61.5t-64.5 81.5t-22.5 110.5q0 71 32.5 124t85.5 87.5t120.5 51.5t137.5 17
q103 0 190.5 -19.5t148.5 -67.5zM820 1493l-238 -323h-156l-239 323h147l164 -215l168 215h154z" />
    <glyph glyph-name="Ydieresis" unicode="&#x178;" horiz-adv-x="1266" 
d="M543 0v582l-533 874h191l431 -729l435 729h191l-543 -871v-585h-172zM569 1676h-163v163h164zM902 1676h-164v163h164v-163z" />
    <glyph glyph-name="Zcaron" unicode="&#x17d;" horiz-adv-x="1222" 
d="M1146 0h-1088v92l864 1216h-832v148h1064v-88l-868 -1220h860v-148zM927 1923l-238 -323h-156l-239 323h147l164 -215l168 215h154z" />
    <glyph glyph-name="zcaron" unicode="&#x17e;" horiz-adv-x="958" 
d="M58 89l600 802h-574v135h797v-87l-598 -805h613l2 -134h-840v89zM795 1493l-238 -323h-156l-239 323h147l164 -215l168 215h154z" />
    <glyph glyph-name="florin" unicode="&#x192;" 
d="M332 803l10 140h169q6 56 14 114.5t22.5 113t38 103t60.5 84.5t90.5 57t128.5 21q33 0 69.5 -5t73.5 -14l-8 -145q-30 12 -58 17t-51 5q-44 0 -73.5 -10.5t-49.5 -30t-31.5 -48.5t-18.5 -66l-36 -196h200l-10 -140h-213l-127 -683q-17 -89 -40 -171t-62.5 -144.5
t-100 -99.5t-152.5 -37q-44 0 -104 16l12 138q44 -16 78 -16q37 0 64.5 16t47.5 43.5t34.5 64t24.5 77.5q24 96 43.5 195.5t37.5 200t35.5 201.5t36.5 199h-155z" />
    <glyph glyph-name="uni0200" unicode="&#x200;" horiz-adv-x="1425" 
d="M199 0h-186l604 1456h185l605 -1456h-191l-163 397h-698zM410 545h584l-234 605q-8 19 -17 44.5t-17 48.5q-10 27 -19 55q-10 -32 -20 -61q-8 -25 -17.5 -49.5t-14.5 -38.5zM657 1604l-276 313h176l220 -313h-120zM926 1604l-275 313h176l217 -313h-118z" />
    <glyph glyph-name="uni0201" unicode="&#x201;" horiz-adv-x="1244" 
d="M582 1051q63 0 115 -11.5t96 -32.5t81 -52t69 -70l6 141h163l-4 -253v-773h-165l2 144q-24 -32 -60.5 -62.5t-82.5 -53.5t-101.5 -37t-116.5 -14q-86 0 -156 22.5t-125 62t-95.5 92.5t-66.5 114t-39 126.5t-13 129.5q0 99 30.5 194t92 169t154 119t216.5 45zM601 109
q70 0 131.5 28.5t108 84t74 138t28.5 190.5q0 81 -24.5 148t-69.5 116t-109.5 76t-144.5 27q-61 0 -110 -16.5t-87 -45.5t-66 -68t-46 -83.5t-26.5 -92.5t-8.5 -95q0 -46 6.5 -94.5t21.5 -93.5t41 -85t64.5 -69.5t92 -47t124.5 -17.5zM566 1174l-276 313h176l220 -313h-120z
M835 1174l-275 313h176l217 -313h-118z" />
    <glyph glyph-name="uni0202" unicode="&#x202;" horiz-adv-x="1425" 
d="M199 0h-186l604 1456h185l605 -1456h-191l-163 397h-698zM410 545h584l-234 605q-8 19 -17 44.5t-17 48.5q-10 27 -19 55q-10 -32 -20 -61q-8 -25 -17.5 -49.5t-14.5 -38.5zM908 1648q-8 34 -28 58.5t-47.5 40t-60 23t-65.5 7.5t-64.5 -6.5t-57.5 -22t-44 -40t-24 -60.5
h-87q10 121 84.5 178.5t199.5 57.5q59 0 108.5 -14.5t86 -44t58.5 -74t27 -103.5h-86z" />
    <glyph glyph-name="uni0203" unicode="&#x203;" horiz-adv-x="1244" 
d="M582 1051q63 0 115 -11.5t96 -32.5t81 -52t69 -70l6 141h163l-4 -253v-773h-165l2 144q-24 -32 -60.5 -62.5t-82.5 -53.5t-101.5 -37t-116.5 -14q-86 0 -156 22.5t-125 62t-95.5 92.5t-66.5 114t-39 126.5t-13 129.5q0 99 30.5 194t92 169t154 119t216.5 45zM601 109
q70 0 131.5 28.5t108 84t74 138t28.5 190.5q0 81 -24.5 148t-69.5 116t-109.5 76t-144.5 27q-61 0 -110 -16.5t-87 -45.5t-66 -68t-46 -83.5t-26.5 -92.5t-8.5 -95q0 -46 6.5 -94.5t21.5 -93.5t41 -85t64.5 -69.5t92 -47t124.5 -17.5zM818 1218q-8 34 -28 58.5t-47.5 40
t-60 23t-65.5 7.5t-64.5 -6.5t-57.5 -22t-44 -40t-24 -60.5h-87q10 121 84.5 178.5t199.5 57.5q59 0 108.5 -14.5t86 -44t58.5 -74t27 -103.5h-86z" />
    <glyph glyph-name="uni0204" unicode="&#x204;" horiz-adv-x="1218" 
d="M1102 0h-897v1456h867v-148h-695v-488h657v-148h-657v-524h725v-148zM553 1604l-276 313h176l220 -313h-120zM822 1604l-275 313h176l217 -313h-118z" />
    <glyph glyph-name="uni0205" unicode="&#x205;" horiz-adv-x="1173" 
d="M906 609l-1 14q-5 65 -25.5 119t-56.5 93t-87.5 60.5t-116.5 21.5q-70 0 -126 -24.5t-96.5 -66.5t-65.5 -98t-34 -119h609zM1039 115q-83 -72 -184 -105t-229 -33q-121 0 -216 39.5t-160.5 110t-100 168.5t-34.5 215q0 111 34 209t99 172t158.5 117t213.5 43
q118 0 205 -38.5t143 -106t83.5 -160.5t27.5 -202q0 -11 -0.5 -25.5t-1.5 -26.5h-787l3 -45q6 -75 30.5 -137t67.5 -107t104.5 -69.5t140.5 -24.5q106 0 194 37t158 106zM531 1174l-276 313h176l220 -313h-120zM800 1174l-275 313h176l217 -313h-118z" />
    <glyph glyph-name="uni0206" unicode="&#x206;" horiz-adv-x="1218" 
d="M1102 0h-897v1456h867v-148h-695v-488h657v-148h-657v-524h725v-148zM805 1648q-8 34 -28 58.5t-47.5 40t-60 23t-65.5 7.5t-64.5 -6.5t-57.5 -22t-44 -40t-24 -60.5h-87q10 121 84.5 178.5t199.5 57.5q59 0 108.5 -14.5t86 -44t58.5 -74t27 -103.5h-86z" />
    <glyph glyph-name="uni0207" unicode="&#x207;" horiz-adv-x="1173" 
d="M906 609l-1 14q-5 65 -25.5 119t-56.5 93t-87.5 60.5t-116.5 21.5q-70 0 -126 -24.5t-96.5 -66.5t-65.5 -98t-34 -119h609zM1039 115q-83 -72 -184 -105t-229 -33q-121 0 -216 39.5t-160.5 110t-100 168.5t-34.5 215q0 111 34 209t99 172t158.5 117t213.5 43
q118 0 205 -38.5t143 -106t83.5 -160.5t27.5 -202q0 -11 -0.5 -25.5t-1.5 -26.5h-787l3 -45q6 -75 30.5 -137t67.5 -107t104.5 -69.5t140.5 -24.5q106 0 194 37t158 106zM782 1218q-8 34 -28 58.5t-47.5 40t-60 23t-65.5 7.5t-64.5 -6.5t-57.5 -22t-44 -40t-24 -60.5h-87
q10 121 84.5 178.5t199.5 57.5q59 0 108.5 -14.5t86 -44t58.5 -74t27 -103.5h-86z" />
    <glyph glyph-name="uni0208" unicode="&#x208;" horiz-adv-x="591" 
d="M382 0h-172v1456h172v-1456zM241 1604l-276 313h176l220 -313h-120zM510 1604l-275 313h176l217 -313h-118z" />
    <glyph glyph-name="uni0209" unicode="&#x209;" horiz-adv-x="503" 
d="M333 0h-165l-1 1026h165zM197 1174l-276 313h176l220 -313h-120zM466 1174l-275 313h176l217 -313h-118z" />
    <glyph glyph-name="uni020A" unicode="&#x20a;" horiz-adv-x="591" 
d="M382 0h-172v1456h172v-1456zM493 1648q-8 34 -28 58.5t-47.5 40t-60 23t-65.5 7.5t-64.5 -6.5t-57.5 -22t-44 -40t-24 -60.5h-87q10 121 84.5 178.5t199.5 57.5q59 0 108.5 -14.5t86 -44t58.5 -74t27 -103.5h-86z" />
    <glyph glyph-name="uni020B" unicode="&#x20b;" horiz-adv-x="503" 
d="M328 1462v-155h-153v155h153zM167 1026h165v-1026h-165v1026zM449 1218q-8 34 -28 58.5t-47.5 40t-60 23t-65.5 7.5t-64.5 -6.5t-57.5 -22t-44 -40t-24 -60.5h-87q10 121 84.5 178.5t199.5 57.5q59 0 108.5 -14.5t86 -44t58.5 -74t27 -103.5h-86z" />
    <glyph glyph-name="uni020C" unicode="&#x20c;" horiz-adv-x="1663" 
d="M1544 726q0 -165 -48.5 -302.5t-140.5 -237t-225 -154.5t-301 -55q-167 0 -299.5 53t-225 151t-141.5 237t-49 311q0 164 49 302t142 238.5t227 157t305 56.5q163 0 294 -54t223 -153t141 -238.5t49 -311.5zM298 725q0 -126 33.5 -235.5t100 -190.5t165.5 -127.5
t230 -46.5q132 0 231.5 46.5t165.5 128t99 193t33 241.5q0 127 -32.5 237t-98.5 191t-164.5 127t-230.5 46q-131 0 -230 -50t-166.5 -134t-101.5 -194.5t-34 -231.5zM776 1604l-276 313h176l220 -313h-120zM1045 1604l-275 313h176l217 -313h-118z" />
    <glyph glyph-name="uni020D" unicode="&#x20d;" horiz-adv-x="1238" 
d="M620 1051q129 0 226.5 -42t162.5 -115t98 -171t33 -210q0 -108 -34.5 -205.5t-101 -171t-164.5 -116.5t-224 -43q-128 0 -226 42t-164.5 114t-101 169.5t-34.5 208.5t35 209.5t102.5 172t166 116t226.5 42.5zM966 511q0 82 -21 156t-64 129.5t-109 88t-156 32.5
q-87 0 -153 -33.5t-110.5 -90t-67 -130.5t-22.5 -154t22.5 -152t67 -127.5t111.5 -88t156 -32.5q88 0 153 33t108 88.5t64 128t21 152.5zM563 1174l-276 313h176l220 -313h-120zM832 1174l-275 313h176l217 -313h-118z" />
    <glyph glyph-name="uni020E" unicode="&#x20e;" horiz-adv-x="1663" 
d="M1544 726q0 -165 -48.5 -302.5t-140.5 -237t-225 -154.5t-301 -55q-167 0 -299.5 53t-225 151t-141.5 237t-49 311q0 164 49 302t142 238.5t227 157t305 56.5q163 0 294 -54t223 -153t141 -238.5t49 -311.5zM298 725q0 -126 33.5 -235.5t100 -190.5t165.5 -127.5
t230 -46.5q132 0 231.5 46.5t165.5 128t99 193t33 241.5q0 127 -32.5 237t-98.5 191t-164.5 127t-230.5 46q-131 0 -230 -50t-166.5 -134t-101.5 -194.5t-34 -231.5zM1027 1648q-8 34 -28 58.5t-47.5 40t-60 23t-65.5 7.5t-64.5 -6.5t-57.5 -22t-44 -40t-24 -60.5h-87
q10 121 84.5 178.5t199.5 57.5q59 0 108.5 -14.5t86 -44t58.5 -74t27 -103.5h-86z" />
    <glyph glyph-name="uni020F" unicode="&#x20f;" horiz-adv-x="1238" 
d="M620 1051q129 0 226.5 -42t162.5 -115t98 -171t33 -210q0 -108 -34.5 -205.5t-101 -171t-164.5 -116.5t-224 -43q-128 0 -226 42t-164.5 114t-101 169.5t-34.5 208.5t35 209.5t102.5 172t166 116t226.5 42.5zM966 511q0 82 -21 156t-64 129.5t-109 88t-156 32.5
q-87 0 -153 -33.5t-110.5 -90t-67 -130.5t-22.5 -154t22.5 -152t67 -127.5t111.5 -88t156 -32.5q88 0 153 33t108 88.5t64 128t21 152.5zM815 1218q-8 34 -28 58.5t-47.5 40t-60 23t-65.5 7.5t-64.5 -6.5t-57.5 -22t-44 -40t-24 -60.5h-87q10 121 84.5 178.5t199.5 57.5
q59 0 108.5 -14.5t86 -44t58.5 -74t27 -103.5h-86z" />
    <glyph glyph-name="uni0210" unicode="&#x210;" horiz-adv-x="1377" 
d="M377 652v-652h-172v1456h356q59 0 129.5 -2t141.5 -13t137 -34.5t117.5 -65.5t82 -107.5t30.5 -159.5q0 -69 -22 -127t-63 -104t-98.5 -78t-127.5 -50h1q61 -20 100.5 -59t71.5 -100.5t63 -146t76 -195.5l87 -214h-188l-153 419q-25 68 -49.5 113t-58 71.5t-79 37.5
t-112.5 11h-270zM377 799h266q67 0 134 12t120.5 41t86.5 79t33 127q0 75 -27.5 123.5t-76.5 76.5t-115 39t-144 11h-277v-509zM633 1604l-276 313h176l220 -313h-120zM902 1604l-275 313h176l217 -313h-118z" />
    <glyph glyph-name="uni0211" unicode="&#x211;" horiz-adv-x="737" 
d="M332 0h-165v779q0 63 -2 126t-4 121h165l6 -155q42 85 114 132t160 47q58 0 108 -12l2 -155q-21 11 -51 17.5t-64 6.5q-60 0 -110 -23.5t-85 -67.5t-54.5 -107t-19.5 -141v-568zM314 1174l-276 313h176l220 -313h-120zM583 1174l-275 313h176l217 -313h-118z" />
    <glyph glyph-name="uni0212" unicode="&#x212;" horiz-adv-x="1377" 
d="M377 652v-652h-172v1456h356q59 0 129.5 -2t141.5 -13t137 -34.5t117.5 -65.5t82 -107.5t30.5 -159.5q0 -69 -22 -127t-63 -104t-98.5 -78t-127.5 -50h1q61 -20 100.5 -59t71.5 -100.5t63 -146t76 -195.5l87 -214h-188l-153 419q-25 68 -49.5 113t-58 71.5t-79 37.5
t-112.5 11h-270zM377 799h266q67 0 134 12t120.5 41t86.5 79t33 127q0 75 -27.5 123.5t-76.5 76.5t-115 39t-144 11h-277v-509zM884 1648q-8 34 -28 58.5t-47.5 40t-60 23t-65.5 7.5t-64.5 -6.5t-57.5 -22t-44 -40t-24 -60.5h-87q10 121 84.5 178.5t199.5 57.5
q59 0 108.5 -14.5t86 -44t58.5 -74t27 -103.5h-86z" />
    <glyph glyph-name="uni0213" unicode="&#x213;" horiz-adv-x="737" 
d="M332 0h-165v779q0 63 -2 126t-4 121h165l6 -155q42 85 114 132t160 47q58 0 108 -12l2 -155q-21 11 -51 17.5t-64 6.5q-60 0 -110 -23.5t-85 -67.5t-54.5 -107t-19.5 -141v-568zM564 1218q-8 34 -28 58.5t-47.5 40t-60 23t-65.5 7.5t-64.5 -6.5t-57.5 -22t-44 -40
t-24 -60.5h-87q10 121 84.5 178.5t199.5 57.5q59 0 108.5 -14.5t86 -44t58.5 -74t27 -103.5h-86z" />
    <glyph glyph-name="uni0214" unicode="&#x214;" horiz-adv-x="1532" 
d="M191 1456h172v-910q0 -204 101 -312.5t299 -108.5q91 0 165.5 28.5t127 82t81 130.5t28.5 173v917h172l-1 -905q-1 -135 -37.5 -242t-109 -180.5t-181 -112.5t-252.5 -39q-156 0 -264 41t-175 115.5t-96.5 178.5t-29.5 229v915zM710 1604l-276 313h176l220 -313h-120z
M979 1604l-275 313h176l217 -313h-118z" />
    <glyph glyph-name="uni0215" unicode="&#x215;" horiz-adv-x="1217" 
d="M878 1026h165v-780q0 -66 1.5 -124.5t6.5 -121.5h-170l-3 135q-116 -158 -338 -158q-76 0 -134 17.5t-100.5 47.5t-71 71t-45.5 88t-24.5 97.5t-7.5 100.5v627h165v-627q-1 -143 61 -216.5t195 -73.5q72 0 127.5 26t94 71t58.5 104.5t20 125.5v590zM553 1174l-276 313
h176l220 -313h-120zM822 1174l-275 313h176l217 -313h-118z" />
    <glyph glyph-name="uni0216" unicode="&#x216;" horiz-adv-x="1532" 
d="M191 1456h172v-910q0 -204 101 -312.5t299 -108.5q91 0 165.5 28.5t127 82t81 130.5t28.5 173v917h172l-1 -905q-1 -135 -37.5 -242t-109 -180.5t-181 -112.5t-252.5 -39q-156 0 -264 41t-175 115.5t-96.5 178.5t-29.5 229v915zM962 1648q-8 34 -28 58.5t-47.5 40t-60 23
t-65.5 7.5t-64.5 -6.5t-57.5 -22t-44 -40t-24 -60.5h-87q10 121 84.5 178.5t199.5 57.5q59 0 108.5 -14.5t86 -44t58.5 -74t27 -103.5h-86z" />
    <glyph glyph-name="uni0217" unicode="&#x217;" horiz-adv-x="1217" 
d="M878 1026h165v-780q0 -66 1.5 -124.5t6.5 -121.5h-170l-3 135q-116 -158 -338 -158q-76 0 -134 17.5t-100.5 47.5t-71 71t-45.5 88t-24.5 97.5t-7.5 100.5v627h165v-627q-1 -143 61 -216.5t195 -73.5q72 0 127.5 26t94 71t58.5 104.5t20 125.5v590zM804 1218
q-8 34 -28 58.5t-47.5 40t-60 23t-65.5 7.5t-64.5 -6.5t-57.5 -22t-44 -40t-24 -60.5h-87q10 121 84.5 178.5t199.5 57.5q59 0 108.5 -14.5t86 -44t58.5 -74t27 -103.5h-86z" />
    <glyph glyph-name="uni0218" unicode="&#x218;" horiz-adv-x="1174" 
d="M215 271q33 -40 77.5 -67.5t94 -45t102 -25.5t102.5 -8q79 0 145 15.5t113.5 46t74 75t26.5 103.5q0 66 -35 112.5t-91.5 82.5t-129.5 64.5t-148.5 58.5t-148.5 64.5t-129.5 82t-91.5 112t-35 153.5q0 96 45 168.5t119 121t168 73.5t193 25q57 0 117 -7t115.5 -25
t103 -47.5t79.5 -74.5l-83 -112q-30 33 -68.5 55.5t-82 36t-89.5 19.5t-91 6q-61 0 -122 -12.5t-110 -40t-80 -71t-31 -105.5q0 -64 35 -110.5t92 -82.5t129.5 -66t148.5 -61t148.5 -67t129.5 -85t92 -114.5t35 -154.5q0 -71 -23 -127.5t-63 -99.5t-94 -73.5t-116.5 -49.5
t-130.5 -28t-135 -9q-73 0 -139 13t-122 37t-100.5 58t-73.5 76zM547 -162h187l-163 -463h-131z" />
    <glyph glyph-name="uni0219" unicode="&#x219;" horiz-adv-x="729" 
d="M790 847q-54 37 -130 53.5t-158 16.5q-46 0 -85 -10t-67.5 -28.5t-45 -45t-16.5 -59.5q0 -35 17 -60t46 -43.5t68 -33t83 -27.5q40 -12 85.5 -25t90.5 -30.5t86 -41t72.5 -55.5t50 -75t18.5 -99q0 -78 -36 -135.5t-95 -95.5t-135 -57t-156 -19q-53 0 -105 6t-99.5 20
t-88 36t-69.5 55l44 135q27 -32 63 -55t77.5 -37.5t85.5 -21t86 -6.5q56 0 103 10.5t81.5 31t54 51t19.5 70.5q0 46 -22 74.5t-61 49t-93 36t-117 35.5q-75 24 -135.5 50.5t-102.5 61.5t-64.5 81.5t-22.5 110.5q0 71 32.5 124t85.5 87.5t120.5 51.5t137.5 17
q103 0 190.5 -19.5t148.5 -67.5zM324 -162h187l-163 -463h-131z" />
    <glyph glyph-name="uni021A" unicode="&#x21a;" horiz-adv-x="1174" 
d="M501 0v1308h-469v148h1113v-148h-472v-1308h-172zM547 -162h187l-163 -463h-131z" />
    <glyph glyph-name="uni021B" unicode="&#x21b;" horiz-adv-x="729" 
d="M243 919h-203v107h203l5 272l160 47v-319h256v-107h-256v-613q0 -34 2 -69.5t13.5 -65t35.5 -48t68 -18.5q32 0 67 8.5t77 23.5l-1 -123q-35 -20 -76 -28.5t-93 -8.5q-84 0 -134.5 28.5t-78 76.5t-36.5 112t-9 135v590zM324 -162h187l-163 -463h-131z" />
    <glyph glyph-name="circumflex" unicode="&#x2c6;" horiz-adv-x="699" 
d="M35 1170l228 324h157l229 -324h-132l-178 216l-178 -216h-126z" />
    <glyph glyph-name="caron" unicode="&#x2c7;" horiz-adv-x="699" 
d="M662 1493l-238 -323h-156l-239 323h147l164 -215l168 215h154z" />
    <glyph glyph-name="breve" unicode="&#x2d8;" horiz-adv-x="629" 
d="M596 1454q-5 -59 -27 -103.5t-58.5 -74t-86 -44t-108.5 -14.5q-125 0 -199.5 57.5t-84.5 178.5h87q6 -36 24 -60.5t44 -40t57.5 -22t64.5 -6.5t65.5 7.5t60 23t47.5 40t28 58.5h86z" />
    <glyph glyph-name="dotaccent" unicode="&#x2d9;" horiz-adv-x="524" 
d="M186 1246l-2 163h157l3 -163h-158z" />
    <glyph glyph-name="ring" unicode="&#x2da;" horiz-adv-x="605" 
d="M410 1340q0 22 -8.5 41t-23.5 33t-35.5 22.5t-43.5 8.5q-22 0 -42 -8.5t-35 -22.5t-24 -33.5t-9 -40.5q0 -46 29.5 -75.5t80.5 -29.5q22 0 42 8.5t35.5 22.5t24.5 33.5t9 40.5zM90 1339q0 41 16.5 76t45 60.5t67 40t81.5 14.5q44 0 82.5 -15t67 -40.5t44.5 -60.5t16 -74
q0 -40 -17 -74.5t-45.5 -60.5t-66.5 -41t-80 -15q-44 0 -82.5 14.5t-67 40t-45 60.5t-16.5 75z" />
    <glyph glyph-name="ogonek" unicode="&#x2db;" horiz-adv-x="508" 
d="M289 -281q23 0 42 2t37 5.5t36 9.5t39 14v-111q-15 -6 -36 -11.5t-45 -9t-49 -6t-47 -2.5q-46 0 -85.5 11t-69 32t-46.5 51.5t-17 70.5q0 38 18.5 72.5t48.5 64t68.5 55t79.5 45.5l129 -12q-44 -27 -81 -52.5t-64 -50t-42.5 -48.5t-15.5 -48q0 -19 9 -34t23 -25.5
t32 -16.5t36 -6z" />
    <glyph glyph-name="tilde" unicode="&#x2dc;" horiz-adv-x="663" 
d="M658 1435q-5 -45 -19.5 -84t-39.5 -68.5t-59 -46t-77 -16.5q-30 0 -62.5 10.5t-65.5 23.5t-65 23.5t-60 10.5q-81 0 -91 -85h-105q4 47 20 85.5t41.5 66.5t60.5 43t77 15q35 0 67.5 -10.5t63.5 -23.5t60.5 -23.5t58.5 -10.5q34 0 57.5 22.5t29.5 67.5h108z" />
    <glyph glyph-name="hungarumlaut" unicode="&#x2dd;" horiz-adv-x="969" 
d="M429 1174l220 313h176l-276 -313h-120zM162 1174l217 313h176l-275 -313h-118z" />
    <glyph glyph-name="uni030F" unicode="&#x30f;" horiz-adv-x="969" 
d="M438 1174l-276 313h176l220 -313h-120zM707 1174l-275 313h176l217 -313h-118z" />
    <glyph glyph-name="uni0311" unicode="&#x311;" horiz-adv-x="629" 
d="M510 1218q-8 34 -28 58.5t-47.5 40t-60 23t-65.5 7.5t-64.5 -6.5t-57.5 -22t-44 -40t-24 -60.5h-87q10 121 84.5 178.5t199.5 57.5q59 0 108.5 -14.5t86 -44t58.5 -74t27 -103.5h-86z" />
    <glyph glyph-name="uni0326" unicode="&#x326;" horiz-adv-x="540" 
d="M185 -162h187l-163 -463h-131z" />
    <glyph glyph-name="Omega" unicode="&#x3a9;" horiz-adv-x="1603" 
d="M93 138l342 -1q-71 52 -130 119.5t-101.5 148t-66 174t-23.5 197.5q0 154 52.5 278t145.5 212t220.5 135.5t276.5 47.5q155 0 279.5 -52t211.5 -142.5t134 -214.5t47 -268q0 -107 -27.5 -200.5t-72.5 -173.5t-104 -145.5t-122 -115.5l328 1l-9 -138h-521l-4 121
q76 51 141 118.5t112.5 148t74 173t26.5 193.5q0 111 -31.5 211.5t-94 177t-156 121.5t-217.5 45q-113 0 -207 -40t-161.5 -112.5t-105 -174t-37.5 -223.5q0 -101 25.5 -194.5t71 -175t110 -149.5t142.5 -119l3 -121h-541z" />
    <glyph glyph-name="pi" unicode="&#x3c0;" horiz-adv-x="1288" 
d="M1214 907h-204v-619q0 -23 1.5 -47.5t11 -45.5t29.5 -34.5t56 -13.5q34 0 80 13l-2 -30t-1 -30q0 -23 2.5 -46.5t10.5 -47.5q-39 -7 -73.5 -10.5t-63.5 -3.5q-59 0 -99 16t-64.5 50.5t-35.5 89t-11 131.5v628h-371q-15 -209 -35 -390q-9 -77 -19.5 -156t-23.5 -148.5
t-28.5 -125.5t-32.5 -87h-169q25 44 44.5 108.5t34 141t25 161.5t17.5 171t11.5 169t6.5 156q-90 -2 -156 -17t-121 -44l-17 131q25 19 58 31.5t75.5 19.5t96.5 9.5t122 2.5h845v-133z" />
    <glyph glyph-name="endash" unicode="&#x2013;" horiz-adv-x="1085" 
d="M1084 489h-1090v137h1090v-137z" />
    <glyph glyph-name="emdash" unicode="&#x2014;" horiz-adv-x="2171" 
d="M2160 489h-2163v137h2163v-137z" />
    <glyph glyph-name="quoteleft" unicode="&#x2018;" horiz-adv-x="553" 
d="M312 1023h-182l154 440h132z" />
    <glyph glyph-name="quoteright" unicode="&#x2019;" horiz-adv-x="553" 
d="M245 1463h181l-154 -440h-132z" />
    <glyph glyph-name="quotesinglbase" unicode="&#x201a;" horiz-adv-x="553" 
d="M231 201h181l-154 -439h-133z" />
    <glyph glyph-name="quotedblleft" unicode="&#x201c;" horiz-adv-x="1024" 
d="M361 1023h-182l154 440h133zM711 1023h-183l154 440h133z" />
    <glyph glyph-name="quotedblright" unicode="&#x201d;" horiz-adv-x="1024" 
d="M312 1463h182l-153 -440h-133zM639 1463h182l-154 -440h-133z" />
    <glyph glyph-name="quotedblbase" unicode="&#x201e;" horiz-adv-x="1024" 
d="M283 201h182l-153 -439h-134zM641 201h183l-154 -439h-133z" />
    <glyph glyph-name="dagger" unicode="&#x2020;" horiz-adv-x="1022" 
d="M433 934h-326v132h326v385h142v-385h344v-132h-358v-821h-128v821z" />
    <glyph glyph-name="daggerdbl" unicode="&#x2021;" horiz-adv-x="1022" 
d="M442 983h-338v132h344l-26 336h171l-21 -336h344v-132h-351v-421h344v-127h-344l26 -322h-171l22 322h-344v127h344v421z" />
    <glyph glyph-name="bullet" unicode="&#x2022;" horiz-adv-x="989" 
d="M833 701q0 -65 -27.5 -122t-74 -100.5t-108 -68.5t-130.5 -25q-70 0 -131.5 24.5t-107 67t-71.5 98.5t-26 119q0 64 27.5 121.5t74.5 101t109 68.5t130 25q69 0 130 -24.5t106.5 -66.5t72 -98.5t26.5 -119.5z" />
    <glyph glyph-name="ellipsis" unicode="&#x2026;" horiz-adv-x="1620" 
d="M376 -11h-217v210h217v-210zM916 -11h-217v210h217v-210zM1456 -11h-217v210h217v-210z" />
    <glyph glyph-name="perthousand" unicode="&#x2030;" horiz-adv-x="2386" 
d="M1962 567q-49 0 -85.5 -19t-60.5 -52t-36 -76.5t-12 -91.5q0 -51 12 -95t36.5 -77t61 -51.5t85.5 -18.5q48 0 84.5 19.5t60.5 52.5t36 77t12 92q0 50 -12 94t-36.5 76.5t-61 51t-84.5 18.5zM1959 -27q-80 0 -142.5 25.5t-105.5 72t-65.5 112t-22.5 145.5q0 76 22.5 140.5
t66 112t107 74t145.5 26.5q81 0 143 -24.5t105 -71t65 -112.5t22 -148q0 -75 -23 -139.5t-66.5 -112t-106.5 -74t-144 -26.5zM410 740q-81 0 -143.5 25.5t-105.5 72t-65.5 112t-22.5 145.5q0 76 22.5 140.5t65.5 111.5t106.5 73.5t144.5 26.5q82 0 145 -25t105.5 -71
t64.5 -111.5t22 -147.5q0 -75 -23 -139.5t-66.5 -112t-106.5 -74t-143 -26.5zM1172 -27q-81 0 -143.5 25.5t-105.5 72t-65.5 112t-22.5 145.5q0 76 22.5 140.5t66 112t107 74t145.5 26.5t144.5 -25.5t105 -72t64 -112t21.5 -146.5q0 -75 -22.5 -139.5t-66 -112t-106.5 -74
t-144 -26.5zM1174 567q-49 0 -85.5 -19t-60.5 -52t-36 -76.5t-12 -91.5q0 -51 12 -95t36.5 -77t61 -51.5t85.5 -18.5q48 0 84 19.5t60 53t36 77t12 91.5q0 51 -11.5 94.5t-35.5 76t-60.5 51t-85.5 18.5zM411 1335q-48 0 -84 -19t-60 -52t-36 -76.5t-12 -91.5q0 -51 12 -95
t36 -77t60.5 -52t86.5 -19q48 0 83.5 19.5t59 52.5t35.5 76.5t12 91.5q0 51 -12 95t-36 76.5t-60 51.5t-85 19zM245 -21l938 1457h149l-934 -1457h-153z" />
    <glyph glyph-name="guilsinglleft" unicode="&#x2039;" horiz-adv-x="642" 
d="M379 914h159l-263 -373l255 -370h-156l-269 370z" />
    <glyph glyph-name="guilsinglright" unicode="&#x203a;" horiz-adv-x="642" 
d="M260 171h-157l262 371l-254 372h155l271 -372z" />
    <glyph glyph-name="fraction" unicode="&#x2044;" horiz-adv-x="368" 
d="M717 1436l-903 -1436h-151l905 1436h149z" />
    <glyph glyph-name="foursuperior" unicode="&#x2074;" horiz-adv-x="897" 
d="M356 615v188h-378v91l366 518h134v-502h109l10 -107h-121v-188h-120zM354 910v180l3 156l-240 -336h237z" />
    <glyph glyph-name="Euro" unicode="&#x20ac;" 
d="M98 654h102q-2 24 -2.5 54.5t1.5 75.5h-124l22 138h121q21 115 67.5 211.5t117.5 166.5t166 109t214 39q100 0 180 -29t143 -89l-36 -189q-54 81 -130 121.5t-164 40.5q-81 0 -144 -30t-110 -82t-78.5 -121.5t-48.5 -147.5h592l-20 -138h-590q-3 -34 -1.5 -66.5
t2.5 -61.5v-2h575l-19 -138h-542q12 -87 39 -158.5t72.5 -123.5t110.5 -80.5t153 -28.5q75 0 154.5 31t162.5 97l-1 -178q-75 -51 -158 -73.5t-174 -22.5q-123 0 -216.5 39t-160 109.5t-106.5 169.5t-55 219h-135z" />
    <glyph glyph-name="trademark" unicode="&#x2122;" horiz-adv-x="1869" 
d="M1009 1451l236 -551l250 551h180v-765h-122v595l-274 -595h-80l-259 594v-594h-121v765h190zM708 1451l-1 -101h-260v-664h-124v664h-253v101h638z" />
    <glyph glyph-name="partialdiff" unicode="&#x2202;" horiz-adv-x="1167" 
d="M495 111q78 0 144 43t116 117t83.5 173t46.5 211q-15 42 -40.5 81t-60.5 68.5t-79 47t-96 17.5q-75 0 -140.5 -36.5t-113.5 -98.5t-75.5 -144t-27.5 -173q0 -69 17 -125.5t48.5 -96.5t76.5 -62t101 -22zM280 1442q60 40 140 65.5t168 25.5q112 0 202 -40.5t153 -124
t97 -212t34 -304.5q0 -108 -15.5 -215t-47.5 -204.5t-80 -181t-113 -144.5t-146.5 -96t-179.5 -35q-101 0 -177.5 34t-128 94t-77.5 141t-26 175q0 123 39.5 229.5t107.5 184.5t159.5 123t196.5 45q57 0 104.5 -13.5t86 -35.5t68.5 -50t51 -58q1 -3 6 -9q0 14 0.5 35.5
t0.5 39.5q0 114 -23.5 204.5t-67 153.5t-106 96.5t-141.5 33.5q-36 0 -72.5 -7.5t-72 -20.5t-68.5 -30.5t-61 -36.5z" />
    <glyph glyph-name="uni2206" unicode="&#x2206;" horiz-adv-x="1314" 
d="M1263 0h-1223v80l521 1349h182l520 -1349v-80zM1033 162l-352 949l-34 107l-32 -107l-346 -949h764z" />
    <glyph glyph-name="product" unicode="&#x220f;" horiz-adv-x="1568" 
d="M1440 1278h-113v-1607h-178v1607h-723v-1607h-175v1607h-125l-16 145h1346z" />
    <glyph glyph-name="summation" unicode="&#x2211;" horiz-adv-x="1264" 
d="M1220 -329h-1163v90l640 791l-618 776v95h1096v-142h-850l46 -59l527 -661l-564 -683l-40 -59h926v-148z" />
    <glyph glyph-name="minus" unicode="&#x2212;" horiz-adv-x="1458" 
d="M1247 633v-137h-1049v137h1049z" />
    <glyph glyph-name="radical" unicode="&#x221a;" horiz-adv-x="1314" 
d="M1212 1596l-466 -1749h-135l-332 843l-172 -28l-20 112l295 51l229 -611l58 -173l40 176l373 1379h130z" />
    <glyph glyph-name="infinity" unicode="&#x221e;" horiz-adv-x="1724" 
d="M1482 618q0 43 -16.5 81t-46 67t-71 46t-90.5 17q-50 0 -95.5 -20t-87 -53t-78.5 -75.5t-68 -88.5q45 -58 85.5 -102.5t80 -74.5t81 -45t87.5 -15q56 0 97.5 20.5t68.5 55.5t40 83t13 104zM226 592q0 -45 17 -88t48 -76t74.5 -53t97.5 -20q48 0 92.5 18.5t85.5 50
t78 74.5t72 91q-35 51 -72.5 94.5t-79 76t-88 51t-98.5 18.5q-54 0 -96 -19t-71 -51.5t-44.5 -75.5t-15.5 -91zM1621 595q0 -80 -29.5 -146t-79 -113.5t-115 -73.5t-137.5 -26q-111 0 -206 63t-194 189q-43 -55 -88 -101.5t-94.5 -80t-103.5 -52t-114 -18.5q-81 0 -148 30
t-115 81.5t-74.5 120t-26.5 144.5q0 69 29.5 129.5t79 105.5t114.5 71t136 26q61 0 116 -18t105 -51t96 -79.5t90 -103.5q42 55 86 101.5t92.5 80t103.5 52t118 18.5q82 0 148.5 -26t113 -72.5t72 -110.5t25.5 -140z" />
    <glyph glyph-name="integral" unicode="&#x222b;" horiz-adv-x="702" 
d="M393 1255q0 81 15 150t49.5 119t92 78.5t142.5 28.5q21 0 38 -1.5t32.5 -4.5t31.5 -7t34 -8l2 -129q-20 8 -50.5 11.5t-59.5 3.5q-51 0 -83 -14t-49.5 -41.5t-24 -68t-6.5 -93.5v-1302q0 -81 -14.5 -150t-49 -119t-91.5 -78.5t-142 -28.5q-21 0 -38 1.5t-32.5 4.5
t-31.5 6.5t-34 8.5l-2 129q20 -8 50.5 -11.5t59.5 -3.5q51 0 82.5 14t49 41.5t23.5 68t6 93.5v1302z" />
    <glyph glyph-name="approxequal" unicode="&#x2248;" horiz-adv-x="1351" 
d="M1187 518q-13 -57 -36.5 -104.5t-59.5 -81t-84 -52t-109 -18.5q-60 0 -122.5 24.5t-144.5 72.5q-51 29 -95.5 48t-86.5 19q-73 0 -116 -45t-65 -120l-114 28q29 120 106 188.5t192 68.5q45 0 87.5 -12.5t83.5 -30.5t79 -40t73 -40t67.5 -30.5t61.5 -12.5q63 0 103.5 43.5
t69.5 122.5zM1185 890q-12 -58 -36 -105t-60 -80.5t-84 -52t-109 -18.5q-32 0 -62.5 6t-62.5 18.5t-67.5 30.5t-76.5 42q-51 29 -95 48.5t-86 19.5q-72 0 -114.5 -45t-64.5 -120l-115 27q27 119 104.5 187.5t193.5 68.5q64 0 122.5 -23.5t127.5 -63.5q66 -39 114.5 -58.5
t87.5 -19.5q63 0 104 42.5t69 123.5z" />
    <glyph glyph-name="notequal" unicode="&#x2260;" horiz-adv-x="1351" 
d="M989 1105l-127 -256h310l10 -121h-378l-148 -283h517l9 -120h-585l-140 -279l-122 18l128 261h-293l-9 120h363l147 283h-501l-10 121h568l136 274z" />
    <glyph glyph-name="lessequal" unicode="&#x2264;" horiz-adv-x="1351" 
d="M1175 9h-1014v122h1014v-122zM1146 216l-949 450v81l949 472v-140l-776 -370l2 1l774 -353v-141z" />
    <glyph glyph-name="greaterequal" unicode="&#x2265;" horiz-adv-x="1350" 
d="M1171 9h-1010v122h1010v-122zM196 1221l956 -473v-80l-960 -450v141l782 348l-778 374v140z" />
    <glyph glyph-name="lozenge" unicode="&#x25ca;" horiz-adv-x="1248" 
d="M680 214l299 497l-293 502l-61 111l-65 -117l-299 -494l291 -502l63 -113zM1130 712l-462 -757h-106l-450 756l458 759h107z" />
    <glyph glyph-name="fi" unicode="&#xfb01;" horiz-adv-x="1205" 
d="M411 0h-165v919h-200l-1 107h201l2 112q1 81 16 150t49 119t90.5 78.5t141.5 28.5q21 0 38 -1.5t32.5 -4.5t31.5 -7t34 -8l2 -129q-20 8 -50.5 11.5t-59.5 3.5q-51 0 -82.5 -14t-48.5 -41.5t-23.5 -68t-6.5 -93.5l-1 -136h623v-1026h-165v919h-458v-919zM1030 1462v-155
h-153v155h153z" />
    <glyph glyph-name="fl" unicode="&#xfb02;" horiz-adv-x="1205" 
d="M411 0h-165v919h-200l-1 107h201l2 112q1 81 16 150t49 119t90.5 78.5t141.5 28.5q21 0 38 -1.5t32.5 -4.5t31.5 -7t34 -8l2 -129q-20 8 -50.5 11.5t-59.5 3.5q-51 0 -82.5 -14t-48.5 -41.5t-23.5 -68t-6.5 -93.5l-1 -136h247l1 -107h-248v-919zM1035 1492v-1492h-165
v1492h165z" />
    <glyph glyph-name="periodcentered" horiz-adv-x="444" 
d="M293 513h-217v210h217v-210z" />
    </font>
</defs>
</svg>
